Subcategories
Tags
Language
Tags

Third Eye - Connexion (1977) [Reissue 2013]

Posted By: gribovar
Third Eye - Connexion (1977) [Reissue 2013]

Third Eye - Connexion (1977) [Reissue 2013]
EAC Rip | FLAC (image+.cue+log) - 273 MB | MP3 CBR 320 kbps (LAME 3.93) - 97 MB | Covers - 257 MB
Genre: Progressive Jazz, Jazz-Funk, Fusion | RAR 3% Rec. | Label: Sonorama Records (Sonorama C-77)

Third Eye was formed in the Netherlands as a piano/ bass/ drums jazz trio and later expanded into an international band led by bassist Alfred "Ali" Haurand. The group played a terrific mix of modal jazz, spiritual jazz, bop and fusion. In 1976 they recorded their fiirst album simply entitled "Third Eye". For this second album named "Connexion" and released the following year, Ali Haurand brought the Jamaican Jazzman Wilton Gaynair (1927-1995) into the band.
"Connexion" mainly contains original material by Wilton Gaynair and stands out as a landmark in the fields of European progressive jazz from the 1970s. The LP includes the excellent Latin/ Brazil fusion track "Ogetnom", made famous by French DJ Cam on a long deleted Jazz Fusion Compilation from 1994. The band pursues a considered and planned format in jazz with four extended album tracks, that combine creative voices in both the writing and performing areas. Their music is inventive, intriguing, imaginative and well played.
Wilton Gaynair and Gerd Dudek are not just blowing experts who "wail" frantically. Together with their solos, the intelligent charts written for only a 2-man front line reflect and support the total performance in a perfect way. In the rhythm department, they are ably supported by the voices of Frank Köllges, Ali Haurand and Steve Boston, tastefully performing their own limited solo chores. It seems that each note of Haurand's full-toned bass is carefully cultivated in pitch and timbre. Köllges was one of the true "all rounders" regarding the drumming while Rob van den Broeck came up with unusual ideas on Fender Piano or synthesizer.
Tracklist:
01. Maroon Dance
02. The Healer
03. Landings
04. Ogetnom

Total time: 41:15

Exact Audio Copy V1.3 from 2. September 2016

Отчёт EAC об извлечении, выполненном 17. июня 2021, 22:23

Third Eye / Connexion

Дисковод: HL-DT-STDVDRAM GT70N Adapter: 1 ID: 0

Режим чтения : Достоверность
Использование точного потока : Да
Отключение кэша аудио : Да
Использование указателей C2 : Нет

Коррекция смещения при чтении : 103
Способность читать области Lead-in и Lead-out : Нет
Заполнение пропущенных сэмплов тишиной : Да
Удаление блоков с тишиной в начале и конце : Нет
При вычислениях CRC использовались нулевые сэмплы : Да
Интерфейс : Встроенный Win32-интерфейс для Win NT/2000

Выходной формат : Пользовательский кодировщик
Выбранный битрейт : 1024 kBit/s
Качество : Высокий
Добавление ID3-тега : Нет
Утилита сжатия : C:\Program Files (x86)\Exact Audio Copy\Flac\flac.exe
Дополнительные параметры : -V -8 -T "Date=%year%" -T "Genre=%genre%" %source%


TOC извлечённого CD

Трек | Старт | Длительность | Начальный сектор | Конечный сектор
––––––––––––––––––––––––––––––––––-
1 | 0:00.00 | 10:55.00 | 0 | 49124
2 | 10:55.00 | 8:40.37 | 49125 | 88161
3 | 19:35.37 | 12:46.00 | 88162 | 145611
4 | 32:21.37 | 8:54.00 | 145612 | 185661


Характеристики диапазона извлечения и сообщения об ошибках

Выбранный диапазон

Имя файла K:\CD\Third Eye - Connexion (1977) [2013, Sonorama C-77]\Third Eye - Connexion.wav

Пиковый уровень 100.0 %
Скорость извлечения 4.5 X
Качество диапазона 100.0 %
CRC теста F0D6433C
CRC копии F0D6433C
Копирование… OK

Ошибок не произошло


AccurateRip: сводка

Трек 1 : извлечено точно (доверие 3) [63515D6A] (AR v2)
Трек 2 : извлечено точно (доверие 3) [95E9EE03] (AR v2)
Трек 3 : извлечено точно (доверие 3) [7D9DC661] (AR v2)
Трек 4 : извлечено точно (доверие 3) [F45EAEE4] (AR v2)

Все треки извлечены точно

Конец отчёта

–– CUETools DB Plugin V2.1.6

[CTDB TOCID: vDpTueotoTyRl.HIcCX1oeecmuM-] disk not present in database
Submit result: vDpTueotoTyRl.HIcCX1oeecmuM- has been uploaded


==== Контрольная сумма отчёта A918E24D61BC21F8FCAB1523D2FB3243BD147874D73B6845BB2A3698CEAD161F ====

[CUETools log; Date: 18.06.2021 20:26:27; Version: 2.1.4]
[CTDB TOCID: vDpTueotoTyRl.HIcCX1oeecmuM-] found.
Track | CTDB Status
1 | (1/1) Accurately ripped
2 | (1/1) Accurately ripped
3 | (1/1) Accurately ripped
4 | (1/1) Accurately ripped
[AccurateRip ID: 00072651-001c9657-3509ab04] found.
Track [ CRC | V2 ] Status
01 [0c7cafc2|63515d6a] (0+3/3) Accurately ripped
02 [bd11e6a7|95e9ee03] (0+3/3) Accurately ripped
03 [caa61c20|7d9dc661] (0+3/3) Accurately ripped
04 [b0a5f609|f45eaee4] (0+3/3) Accurately ripped

Track Peak [ CRC32 ] [W/O NULL] [ LOG ]
– 100,0 [F0D6433C] [384B9A60] CRC32
01 100,0 [274DDE88] [54DD989F]
02 100,0 [FABD64E0] [9A9A84CC]
03 100,0 [CF837F89] [DE256796]
04 100,0 [32B60052] [30D8D249]

Thanks to Verbizki66