Tags
Language
Tags

Thomas Zehetmair - Ruth Killius - Manto and Madrigals (2011)

Posted By: basa005
Thomas Zehetmair - Ruth Killius - Manto and Madrigals (2011)

Thomas Zehetmair - Ruth Killius - Manto and Madrigals (2011)
EAC RIP | APE + CUE + LOG | COVER + BOOK | RAR FILES (3% recovery) | 211 Mb
Classical | ECM New Series 2150

Thomas Zehetmair - Ruth Killius - Manto and Madrigals (2011)

Tracklist:
Rainer Kilius
1. Ó min flaskan friða
Giacinto Scelsi
2-4. Manto (1957)
Heinz Holliger
5-7. Drei Skizzen (2006)
I Pirouettes harmoniques
II Danse dense
III Cantique à six voix
Béla Bartók
8. Duo (1902)
Nikos Skalkottas
9-11. Duo (1938)
I Allegro vivo
II Andante
III Ben ritenuto
Peter Maxwell Davies
12. Midhouse Air (1996)
Bohuslav Martinù
13-15. Three Madrigals
I Poco allegro
II Poco andante
III Allegro
Johannes Nied
16. Zugabe (2004)

Thomas Zehetmair violin
Ruth Killius viola, voice

Violinist Thomas Zehetmair whose recent Paganini recording from St. Gerold met with overwhelming critical acclaim last year and violist Ruth Killius have shared many years as musical collaborators in the Zehetmair quartet. The couple’s spectacular duo performance at last autumn’s ECM festival in Mannheim raised the expectactions for their new programme, a carefully composed anthology of contemporary pieces for violin and viola. Next to Bohuslav Martinů’s virtuosic and accessible “Madrigals”, written in 1946 in American exile, the central piece here is “Drei Skizzen” by Heinz Holliger, a triptychon with the instruments tuned in the scordatura of Mozart’s fomous “Sinfonia concertante” for violin, viola and orchestra. It was commissioned by the duo as an encore piece for their frequent renderings of Mozart’s masterworks on the concert platform. Its first movement “Pirouetts harmoniques” is entirely based on shimmering harmonics, whereas the second one is an exuberant perpetuum mobile. The cycle concludes with a six-part chorale that requires both string players to hum an extra voice. This idea, which is realised by the duo to a most stunning effect effect, was itself inspired by Giancinto Scelsi’s solo piece “Manto” for a “singing viola player”. The programme is complemented by compositions by Nikos Skalkottas, Béla Bartók and short pieces by Rainer Killius and Johannes Nied.


Exact Audio Copy V1.0 beta 2 from 29. April 2011

EAC extraction logfile from 28. October 2011, 16:11

Unknown Artist / Unknown Title

Used drive : TSSTcorpCDDVDW SE-S204N Adapter: 2 ID: 0

Read mode : Secure
Utilize accurate stream : Yes
Defeat audio cache : Yes
Make use of C2 pointers : No

Read offset correction : 6
Overread into Lead-In and Lead-Out : No
Fill up missing offset samples with silence : Yes
Delete leading and trailing silent blocks : No
Null samples used in CRC calculations : No
Used interface : Native Win32 interface for Win NT & 2000

Used output format : Internal WAV Routines
Sample format : 44.100 Hz; 16 Bit; Stereo


TOC of the extracted CD

Track | Start | Length | Start sector | End sector
––––––––––––––––––––––––––––-
1 | 0:00.00 | 2:37.47 | 0 | 11821
2 | 2:37.47 | 4:08.06 | 11822 | 30427
3 | 6:45.53 | 3:58.51 | 30428 | 48328
4 | 10:44.29 | 2:52.24 | 48329 | 61252
5 | 13:36.53 | 4:04.54 | 61253 | 79606
6 | 17:41.32 | 1:30.63 | 79607 | 86419
7 | 19:12.20 | 4:59.69 | 86420 | 108913
8 | 24:12.14 | 0:43.70 | 108914 | 112208
9 | 24:56.09 | 1:15.42 | 112209 | 117875
10 | 26:11.51 | 1:58.33 | 117876 | 126758
11 | 28:10.09 | 2:40.14 | 126759 | 138772
12 | 30:50.23 | 1:51.51 | 138773 | 147148
13 | 32:41.74 | 3:56.30 | 147149 | 164878
14 | 36:38.29 | 4:24.48 | 164879 | 184726
15 | 41:03.02 | 5:12.63 | 184727 | 208189
16 | 46:15.65 | 3:15.27 | 208190 | 222841


Range status and errors

Selected range

Filename C:\avaxhome\Thomas Zehetmair - Ruth Killius - Manto and Madrigals.wav

Peak level 95.6 %
Extraction speed 6.9 X
Range quality 100.0 %
Copy CRC 3549A0E3
Copy OK

No errors occurred


AccurateRip summary

Track 1 not present in database
Track 2 not present in database
Track 3 not present in database
Track 4 not present in database
Track 5 not present in database
Track 6 not present in database
Track 7 not present in database
Track 8 not present in database
Track 9 not present in database
Track 10 not present in database
Track 11 not present in database
Track 12 not present in database
Track 13 not present in database
Track 14 not present in database
Track 15 not present in database
Track 16 not present in database

None of the tracks are present in the AccurateRip database

End of status report

==== Log checksum D5B7DACA5EF9BDCDAF7A9DAFAC04EF88C52797FCC81B642CD3BF26821C6C13D9 ====