Subcategories

Thunder - Live At Brooklyn Bowl, London (2015)

Posted By: v3122
Thunder - Live At Brooklyn Bowl, London (2015)

Thunder - Live At Brooklyn Bowl, London (2015)
XLD | Flac(Image) + Cue + Log & MP3 CBR 320Kbps
Classic Rock, ROC207-03-15 | ~ 302 or 92 Mb | Scans(jpg) -> 3.79 Mb
Hard Rock / Classic Rock

~ Exclusive recording for Classic Rock 6.11.2014. Issued with Classic Rock magazine January 2015 Issue #207. ~

Thunder - Live At Brooklyn Bowl, London (2015)):

Thunder - Live At Brooklyn Bowl, London (2015)

Tracklist:

01. Backstreet Symphony (5:08)
02. The Thing I Want (4:04)
03. Low Life In High Places (6:10)
04. Be Good To Yourself (3:24)
05. Wonder Days (5:15)
06. The Devil Made Me Do It (5:21)
07. Resurrection Day (5:06)
08. Up Around The Bend (3:55)

Converted to Image (CUETools 2.1.4)

X Lossless Decoder version 20141129 (148.1)

XLD extraction logfile from 2015-04-07 12:21:14 +0100

Thunder / Live At Brooklyn Bowl, London

Used drive : TSSTcorp CDDVDW SH-S203N (revision LA00)
Media type : Pressed CD

Ripper mode : XLD Secure Ripper
Disable audio cache : OK for the drive with a cache less than 1375KiB
Make use of C2 pointers : NO
Read offset correction : 6
Max retry count : 100
Gap status : Analyzed, Appended

TOC of the extracted CD
Track | Start | Length | Start sector | End sector
––––––––––––––––––––––––––––-
1 | 00:00:00 | 05:08:12 | 0 | 23111
2 | 05:08:12 | 04:03:59 | 23112 | 41395
3 | 09:11:71 | 06:09:69 | 41396 | 69139
4 | 15:21:65 | 03:24:32 | 69140 | 84471
5 | 18:46:22 | 05:14:38 | 84472 | 108059
6 | 24:00:60 | 05:20:40 | 108060 | 132099
7 | 29:21:25 | 05:05:73 | 132100 | 155047
8 | 34:27:23 | 03:54:67 | 155048 | 172664

AccurateRip Summary (DiscID: 000bfe49-004fe81a-5a08fe08)
Track 01 : OK (v2, confidence 2/2)
Track 02 : OK (v2, confidence 2/2)
Track 03 : OK (v2, confidence 2/2)
Track 04 : OK (v2, confidence 2/2)
Track 05 : OK (v2, confidence 2/2)
Track 06 : OK (v2, confidence 2/2)
Track 07 : OK (v2, confidence 2/2)
Track 08 : OK (v2, confidence 2/2)
->All tracks accurately ripped.

All Tracks
Album gain : -8.94 dB
Peak : 1.000000
Statistics
Read error : 0
Jitter error (maybe fixed) : 0
Retry sector count : 0
Damaged sector count : 0

Track 01
Filename : /Volumes/Macintosh HD-1/XLD RIPS/Thunder - Live At Brooklyn Bowl, London (2014) [MP3 V0]/01 Backstreet Symphony.mp3
/Volumes/Macintosh HD-1/XLD RIPS/Thunder - Live At Brooklyn Bowl, London (2014) [MP3 V2]/01 Backstreet Symphony.mp3
/Volumes/Macintosh HD-1/XLD RIPD/Thunder - Live At Brooklyn Bowl, London (2014) [MP3 320]/01 Backstreet Symphony.mp3
/Volumes/Macintosh HD-1/XLD RIPS/Thunder - Live At Brooklyn Bowl, London (2014) [FLAC]/01 Backstreet Symphony.flac
Pre-gap length : 00:02:00

Track gain : -9.27 dB
Peak : 1.000000
CRC32 hash (test run) : 1223250F
CRC32 hash : 1223250F
CRC32 hash (skip zero) : 9F8CCCA1
AccurateRip v1 signature : BD0F63AA
AccurateRip v2 signature : DB00ECA0
->Accurately ripped (v2, confidence 2/2)
Statistics
Read error : 0
Jitter error (maybe fixed) : 0
Retry sector count : 0
Damaged sector count : 0

Track 02
Filename : /Volumes/Macintosh HD-1/XLD RIPS FOR WHAT/Thunder - Live At Brooklyn Bowl, London (2014) [MP3 V0]/02 The Thing I Want.mp3
/Volumes/Macintosh HD-1/XLD RIPS FOR WHAT/Thunder - Live At Brooklyn Bowl, London (2014) [MP3 V2]/02 The Thing I Want.mp3
/Volumes/Macintosh HD-1/XLD RIPS FOR WHAT/Thunder - Live At Brooklyn Bowl, London (2014) [MP3 320]/02 The Thing I Want.mp3
/Volumes/Macintosh HD-1/XLD RIPS FOR WHAT/Thunder - Live At Brooklyn Bowl, London (2014) [FLAC]/02 The Thing I Want.flac
Pre-gap length : 00:02:00

Track gain : -8.94 dB
Peak : 1.000000
CRC32 hash (test run) : 7868D55A
CRC32 hash : 7868D55A
CRC32 hash (skip zero) : 1336F99E
AccurateRip v1 signature : 9AFFDA6A
AccurateRip v2 signature : A424EA08
->Accurately ripped (v2, confidence 2/2)
Statistics
Read error : 0
Jitter error (maybe fixed) : 0
Retry sector count : 0
Damaged sector count : 0

Track 03
Filename : /Volumes/Macintosh HD-1/XLD RIPS FOR WHAT/Thunder - Live At Brooklyn Bowl, London (2014) [MP3 V0]/03 Low Life In High Places.mp3
/Volumes/Macintosh HD-1/XLD RIPS FOR WHAT/Thunder - Live At Brooklyn Bowl, London (2014) [MP3 V2]/03 Low Life In High Places.mp3
/Volumes/Macintosh HD-1/XLD RIPS FOR WHAT/Thunder - Live At Brooklyn Bowl, London (2014) [MP3 320]/03 Low Life In High Places.mp3
/Volumes/Macintosh HD-1/XLD RIPS FOR WHA/Thunder - Live At Brooklyn Bowl, London (2014) [FLAC]/03 Low Life In High Places.flac
Pre-gap length : 00:02:00

Track gain : -8.28 dB
Peak : 1.000000
CRC32 hash (test run) : 0D12B03C
CRC32 hash : 0D12B03C
CRC32 hash (skip zero) : 541076C7
AccurateRip v1 signature : 09F182CB
AccurateRip v2 signature : 38D8563D
->Accurately ripped (v2, confidence 2/2)
Statistics
Read error : 0
Jitter error (maybe fixed) : 0
Retry sector count : 0
Damaged sector count : 0

Track 04
Filename : /Volumes/Macintosh HD-1/XLD RIPS FOR WHAT/Thunder - Live At Brooklyn Bowl, London (2014) [MP3 V0]/04 Be Good To Yourself.mp3
/Volumes/Macintosh HD-1/XLD RIPS FOR WHAT/Thunder - Live At Brooklyn Bowl, London (2014) [MP3 V2]/04 Be Good To Yourself.mp3
/Volumes/Macintosh HD-1/XLD RIPS FOR WHAT/Thunder - Live At Brooklyn Bowl, London (2014) [MP3 320]/04 Be Good To Yourself.mp3
/Volumes/Macintosh HD-1/XLD RIPS FOR WHAT/Thunder - Live At Brooklyn Bowl, London (2014) [FLAC]/04 Be Good To Yourself.flac
Pre-gap length : 00:02:00

Track gain : -8.87 dB
Peak : 1.000000
CRC32 hash (test run) : 6047A349
CRC32 hash : 6047A349
CRC32 hash (skip zero) : D6E7A413
AccurateRip v1 signature : C093AE78
AccurateRip v2 signature : 29E76CC2
->Accurately ripped (v2, confidence 2/2)
Statistics
Read error : 0
Jitter error (maybe fixed) : 0
Retry sector count : 0
Damaged sector count : 0

Track 05
Filename : /Volumes/Macintosh HD-1/XLD RIPS FOR WHAT/Thunder - Live At Brooklyn Bowl, London (2014) [MP3 V0]/05 Wonder Days.mp3
/Volumes/Macintosh HD-1/XLD RIPS FOR WHAT/Thunder - Live At Brooklyn Bowl, London (2014) [MP3 V2]/05 Wonder Days.mp3
/Volumes/Macintosh HD-1/XLD RIPS FOR WHAT/Thunder - Live At Brooklyn Bowl, London (2014) [MP3 320]/05 Wonder Days.mp3
/Volumes/Macintosh HD-1/XLD RIPS FOR WHAT/Thunder - Live At Brooklyn Bowl, London (2014) [FLAC]/05 Wonder Days.flac
Pre-gap length : 00:02:00

Track gain : -8.41 dB
Peak : 1.000000
CRC32 hash (test run) : 58C2F76A
CRC32 hash : 58C2F76A
CRC32 hash (skip zero) : 90C5A35F
AccurateRip v1 signature : 1F689F82
AccurateRip v2 signature : 52A6B1F0
->Accurately ripped (v2, confidence 2/2)
Statistics
Read error : 0
Jitter error (maybe fixed) : 0
Retry sector count : 0
Damaged sector count : 0

Track 06
Filename : /Volumes/Macintosh HD-1/XLD RIPS FOR WHAT/Thunder - Live At Brooklyn Bowl, London (2014) [MP3 V0]/06 The Devil Made Me Do It.mp3
/Volumes/Macintosh HD-1/XLD RIPS FOR WHAT/Thunder - Live At Brooklyn Bowl, London (2014) [MP3 V2]/06 The Devil Made Me Do It.mp3
/Volumes/Macintosh HD-1/XLD RIPS FOR WHAT/Thunder - Live At Brooklyn Bowl, London (2014) [MP3 320]/06 The Devil Made Me Do It.mp3
/Volumes/Macintosh HD-1/XLD RIPS FOR WHAT/Thunder - Live At Brooklyn Bowl, London (2014) [FLAC]/06 The Devil Made Me Do It.flac
Pre-gap length : 00:02:00

Track gain : -9.23 dB
Peak : 1.000000
CRC32 hash (test run) : FC5D8323
CRC32 hash : FC5D8323
CRC32 hash (skip zero) : D5B966FC
AccurateRip v1 signature : 26D9893C
AccurateRip v2 signature : 29EA8E7E
->Accurately ripped (v2, confidence 2/2)
Statistics
Read error : 0
Jitter error (maybe fixed) : 0
Retry sector count : 0
Damaged sector count : 0

Track 07
Filename : /Volumes/Macintosh HD-1/XLD RIPS FOR WHAT/Thunder - Live At Brooklyn Bowl, London (2014) [MP3 V0]/07 Resurrection Day.mp3
/Volumes/Macintosh HD-1/XLD RIPS FOR WHAT/Thunder - Live At Brooklyn Bowl, London (2014) [MP3 V2]/07 Resurrection Day.mp3
/Volumes/Macintosh HD-1/XLD RIPS FOR WHAT/Thunder - Live At Brooklyn Bowl, London (2014) [MP3 320]/07 Resurrection Day.mp3
/Volumes/Macintosh HD-1/XLD RIPS FOR WHAT/Thunder - Live At Brooklyn Bowl, London (2014) [FLAC]/07 Resurrection Day.flac
Pre-gap length : 00:02:00

Track gain : -8.99 dB
Peak : 1.000000
CRC32 hash (test run) : C5B3C8B0
CRC32 hash : C5B3C8B0
CRC32 hash (skip zero) : ABFFAE4B
AccurateRip v1 signature : 93E9A556
AccurateRip v2 signature : 5B526E24
->Accurately ripped (v2, confidence 2/2)
Statistics
Read error : 0
Jitter error (maybe fixed) : 0
Retry sector count : 0
Damaged sector count : 0

Track 08
Filename : /Volumes/Macintosh HD-1/XLD RIPS FOR WHAT/Thunder - Live At Brooklyn Bowl, London (2014) [MP3 V0]/08 Up Around The Bend.mp3
/Volumes/Macintosh HD-1/XLD RIPS FOR WHAT/Thunder - Live At Brooklyn Bowl, London (2014) [MP3 V2]/08 Up Around The Bend.mp3
/Volumes/Macintosh HD-1/XLD RIPS FOR WHAT/Thunder - Live At Brooklyn Bowl, London (2014) [MP3 320]/08 Up Around The Bend.mp3
/Volumes/Macintosh HD-1/XLD RIPS FOR WHAT/Thunder - Live At Brooklyn Bowl, London (2014) [FLAC]/08 Up Around The Bend.flac
Pre-gap length : 00:02:00

Track gain : -8.73 dB
Peak : 1.000000
CRC32 hash (test run) : EE309752
CRC32 hash : EE309752
CRC32 hash (skip zero) : 9F203505
AccurateRip v1 signature : D24ED590
AccurateRip v2 signature : 802AFEB9
->Accurately ripped (v2, confidence 2/2)
Statistics
Read error : 0
Jitter error (maybe fixed) : 0
Retry sector count : 0
Damaged sector count : 0

No errors occurred

End of status report

––-BEGIN XLD SIGNATURE––-
iYqQ3mp9.t3xC0Ct6MHkUcgoAB391XydKYcuAtzjvsm5ydn.1ZipICfWVBsmmElSVlXNcCGm_R4vQB2pPMx8B0NOsmzpy2A_On2xvpW
––-END XLD SIGNATURE––-


[CUETools log; Date: 08.01.2018 15:43:46; Version: 2.1.5]
[AccurateRip ID: 000bfe49-004fe81a-5a08fe08] found.
Track [ CRC | V2 ] Status
01 [bd0f63aa|db00eca0] (02+18/20) Accurately ripped
02 [9affda6a|a424ea08] (02+18/20) Accurately ripped
03 [09f182cb|38d8563d] (02+18/20) Accurately ripped
04 [c093ae78|29e76cc2] (02+18/20) Accurately ripped
05 [1f689f82|52a6b1f0] (02+18/20) Accurately ripped
06 [26d9893c|29ea8e7e] (02+18/20) Accurately ripped
07 [93e9a556|5b526e24] (02+18/20) Accurately ripped
08 [d24ed590|802afeb9] (02+18/20) Accurately ripped

Track Peak [ CRC32 ] [W/O NULL]
– 100,0 [DCC81162] [5B3360FF]
01 100,0 [1223250F] [9F8CCCA1]
02 100,0 [7868D55A] [1336F99E]
03 100,0 [0D12B03C] [541076C7]
04 100,0 [6047A349] [D6E7A413]
05 100,0 [58C2F76A] [90C5A35F]
06 100,0 [FC5D8323] [D5B966FC]
07 100,0 [C5B3C8B0] [ABFFAE4B]
08 100,0 [EE309752] [9F203505]


Thunder - Live At Brooklyn Bowl, London (2015)

All thanks go to the original releaser

Thunder or Thunder in my Blog

Download Thunder - Live At Brooklyn Bowl, London (2015):