Subcategories

Timothy McAllister, David Robertson, St. Louis Symphony - John Adams: City Noir, Saxophone Concerto (2014)

Posted By: peotuvave
Timothy McAllister,  David Robertson, St. Louis Symphony - John Adams: City Noir, Saxophone Concerto (2014)

Timothy McAllister, David Robertson, St. Louis Symphony - John Adams: City Noir, Saxophone Concerto (2014)
EAC Rip | Flac (Image + cue + log) | 1 CD | Full Scans | 326 MB
Genre: Classical | Label: Nonesuch | Catalog Number: 541356

Nonesuch Records releases City Noir, comprising the title piece by composer John Adams and the debut recording of his Saxophone Concerto. Both pieces are performed by the St. Louis Symphony led by Music Director David Robertson. Saxophonist Timothy McAllister is featured on both pieces.

Composer: John Adams
Performer: Timothy McAllister
Conductor: David Robertson
Orchestra/Ensemble: St. Louis Symphony Orchestra

Reviews: The new album City Noir—comprising the title piece by composer John Adams and the debut recording of his Saxophone Concerto—is out today in North America, with an international release to follow May 19. Both pieces on the album are performed by the St. Louis Symphony led by Music Director David Robertson. Saxophonist Timothy McAllister is featured on both pieces. To pick up a copy of City Noir, head to iTunes or the Nonesuch Store, where CD orders include a download of the complete album at checkout; it is also available to purchase there as MP3s and FLAC lossless files.

City Noir “is a symphony inspired by the peculiar ambience and mood of Los Angeles ‘noir’ films, especially those produced in the late ’40s and early ’50,” says Adams in his notes on the piece. “My music is an homage not necessarily to the film music of that period but rather to the overall aesthetic of the era.” Following The Dharma at Big Sur and El Dorado, City Noir “becomes the third in a triptych of orchestral works that have as their theme the California experience, its landscape and its culture,” explains the composer. In its review of the piece, the New York Times said that Adams “has become a master at piling up materials in thick yet lucid layers. Moment to moment the music is riveting.”

Adams’ Saxophone Concerto was composed for McAllister, whom the composer described as “a fearless musician and risk taker” after the musician’s performance of what Adams calls a “fiendishly difficult” alto sax solo part in City Noir. The composer explains, also in his notes, that he grew up “hearing the sound of the saxophone virtually every day—my father had played alto in swing bands during the 1930s and our family record collection was well stocked with albums by the great jazz masters—I never considered the saxophone an alien instrument.”

Adams continues, “While the concerto is not meant to sound jazzy per se, its jazz influences lie only slightly below the surface.” The Australian noted of its world premiere performance that “in the relentless, bebop-like figurations—stunningly executed—it recalled the frenetic solos of Charlie Parker, Cannonball Adderley and John Coltrane.” This is the first recording of the work.

California–born conductor David Robertson has worked with major orchestras around the world. In 2014–2015 Robertson celebrates his 10th season as Music Director of the St. Louis Symphony. Founded in 1880, the St. Louis Symphony is the second-oldest orchestra in the United States. Robertson and the St. Louis Symphony’s last release with Nonesuch was Adams’ composition, Doctor Atomic Symphony, which was named Classical Album of the Decade by the Times of London.

The New York Times has called Timothy McAllister “one of the foremost saxophonists of his generation.” He is a member of the PRISM Quartet and also tours and records as a soloist and orchestral musician. Besides these two pieces by John Adams, McAllister has premiered more than 150 other new works by composers including William Bolcom, Donnacha Dennehy, John Harbison, Jennifer Higdon, Zhou Long, Steven Mackey, and Gunther Schuller, among many others. McAllister serves as associate professor of saxophone and co-director of the Institute for New Music at Northwestern University, and he joins the faculty of the University of Michigan in September 2014.

Tracklisting:

City Noir
1. I. The City And Its Double
2. II. The Song Is For You
3. III. Boulevard Night

Saxophone Concerto
4. I. Animato
5. I. (Cont'd.) Moderato
6. II. Molto vivo

Exact Audio Copy V1.0 beta 1 from 15. November 2010

EAC extraction logfile from 21. June 2014, 23:04

John Adams / City Noir & Saxophone Concerto

Used drive : Optiarc DVD RW AD-7203A Adapter: 4 ID: 1

Read mode : Secure
Utilize accurate stream : Yes
Defeat audio cache : Yes
Make use of C2 pointers : No

Read offset correction : 48
Overread into Lead-In and Lead-Out : No
Fill up missing offset samples with silence : Yes
Delete leading and trailing silent blocks : No
Null samples used in CRC calculations : Yes
Used interface : Native Win32 interface for Win NT & 2000

Used output format : User Defined Encoder
Selected bitrate : 128 kBit/s
Quality : High
Add ID3 tag : No
Command line compressor : C:\Program Files\FLAC\flac.exe
Additional command line options : -T "COMMENT=Ripped by GFox" -8 -V %s


TOC of the extracted CD

Track | Start | Length | Start sector | End sector
––––––––––––––––––––––––––––-
1 | 0:00.00 | 13:47.42 | 0 | 62066
2 | 13:47.42 | 9:22.46 | 62067 | 104262
3 | 23:10.13 | 12:20.28 | 104263 | 159790
4 | 35:30.41 | 12:28.45 | 159791 | 215935
5 | 47:59.11 | 9:20.31 | 215936 | 257966
6 | 57:19.42 | 5:53.26 | 257967 | 284467


Range status and errors

Selected range

Filename D:\EAC\John Adams - City Noir & Saxophone Concerto.wav

Peak level 82.7 %
Extraction speed 0.2 X
Range quality 99.9 %
Test CRC 3C39AB81
Copy CRC 3C39AB81
Copy OK

No errors occurred


AccurateRip summary

Track 1 not present in database
Track 2 not present in database
Track 3 not present in database
Track 4 not present in database
Track 5 not present in database
Track 6 not present in database

None of the tracks are present in the AccurateRip database

End of status report

==== Log checksum 8485E96B6545F7E26DAAEE568F389806A05357A2CFFDC06E90E33862D43DBD2E ====



Thanks to the original releaser