Subcategories

Tina Arena - Greatest Hits & Interpretations (2017)

Posted By: SERTiL
Tina Arena - Greatest Hits & Interpretations (2017)

Tina Arena - Greatest Hits & Interpretations
EAC Rip | FLAC (tracks)+cue, log, front cover | 133:52 min | 888 MB
Label: Positive Dream Pty Ltd – 5747997 | Tracks: 31 | Rls.date: 2017
Pop

Tina Arena, the undisputed high priestess of Australian music, is set to release ‘Greatest Hits and Interpretations’, a 2CD / 31 track set that pays homage to her incredible 40 years in the music business. A selection of Australia’s finest performers have joined in the celebration, lending their own renditions of Tina’s songs to this magnificent collection, to delight even the most ardent fans!

‘Greatest Hits and Interpretations’ is simply the most comprehensive anthology ever released of Tina Arena’s work. It brings together all the much-loved greatest hits spanning her entire music career including, for the first time ever, Tina’s earliest solo breakthrough singles, 1990’s “I Need Your Body” and “The Machine’s Breaking Down”, right through to her more recent classics, including 2013’s “Only Lonely” and “You Set Fire To My Life”.

It also features those megahits in between, the iconic songs that generations of Australians know off by heart – “Chains”, “Sorrento Moon”, “Wasn’t It Good”, “Burn”, “If I Didn’t Love You”, “Symphony Of Life” and many more.

A 40-year recording career by any singer is an extraordinary milestone, and Tina Arena is the only Australian artist to earn a gold or platinum certification for one of her albums in every decade since the 1970s right through to now. In fact, every album in her career has gone gold, platinum or multi-platinum.

TRACKLIST

CD1
01. Tina Arena – I Need Your Body (04:03)
02. Tina Arena – The Machine's Breaking Down (04:35)
03. Tina Arena – Strong As Steel (05:05)
04. Tina Arena – Chains (04:21)
05. Tina Arena – Sorrento Moon (04:53)
06. Tina Arena – Heaven Help My Heart (04:29)
07. Tina Arena – Wasn’t It Good (05:13)
08. Tina Arena – Burn (04:44)
09. Tina Arena – Now I Can Dance (04:05)
10. Tina Arena – If I Didn't Love You (05:01)
11. Tina Arena – Soul Mate #9 (03:24)
12. Tina Arena – Symphony of Life (04:43)
13. The Roc Project – Never (Past Tense) [feat. Tina Arena] (03:44)
14. Tina Arena – You Set Fire To My Life (04:13)
15. Tina Arena – Only Lonely (03:22)
16. Tina Arena – Reset All (03:46)
17. Tina Arena – I Want To Love You (05:12)

Exact Audio Copy V1.3 from 2. September 2016

EAC extraction logfile from 17. July 2017, 4:27

Tina Arena / Tina Arena (greatest hits & interpretations) - CD1

Used drive : HL-DT-STDVD-RAM GH22NS30 Adapter: 1 ID: 0

Read mode : Secure
Utilize accurate stream : Yes
Defeat audio cache : Yes
Make use of C2 pointers : No

Read offset correction : 102
Overread into Lead-In and Lead-Out : No
Fill up missing offset samples with silence : Yes
Delete leading and trailing silent blocks : No
Null samples used in CRC calculations : Yes
Used interface : Native Win32 interface for Win NT & 2000
Gap handling : Appended to previous track

Used output format : User Defined Encoder
Selected bitrate : 1024 kBit/s
Quality : High
Add ID3 tag : No
Command line compressor : C:\Program Files (x86)\Exact Audio Copy\Flac\flac.exe
Additional command line options : -8 -V -T "Artist=%artist%" -T "Title=%title%" -T "Album=%albumtitle%" -T "Date=%year%" -T "Tracknumber=%tracknr%" -T "Genre=%genre%" %source% -o %dest%


TOC of the extracted CD

Track | Start | Length | Start sector | End sector
––––––––––––––––––––––––––––-
1 | 0:00.00 | 4:03.24 | 0 | 18248
2 | 4:03.24 | 4:37.09 | 18249 | 39032
3 | 8:40.33 | 5:06.17 | 39033 | 61999
4 | 13:46.50 | 4:23.19 | 62000 | 81743
5 | 18:09.69 | 4:55.30 | 81744 | 103898
6 | 23:05.24 | 4:31.21 | 103899 | 124244
7 | 27:36.45 | 5:15.20 | 124245 | 147889
8 | 32:51.65 | 4:47.16 | 147890 | 169430
9 | 37:39.06 | 4:06.40 | 169431 | 187920
10 | 41:45.46 | 5:03.13 | 187921 | 210658
11 | 46:48.59 | 3:26.58 | 210659 | 226166
12 | 50:15.42 | 4:45.64 | 226167 | 247605
13 | 55:01.31 | 3:47.12 | 247606 | 264642
14 | 58:48.43 | 4:15.53 | 264643 | 283820
15 | 63:04.21 | 3:25.39 | 283821 | 299234
16 | 66:29.60 | 3:48.17 | 299235 | 316351
17 | 70:18.02 | 5:12.42 | 316352 | 339793


Track 1

Filename E:\Tina Arena - Tina Arena (greatest hits & interpretations) - flac\CD1 - Retrospective\01 - I Need Your Body.wav

Pre-gap length 0:00:02.00

Peak level 98.9 %
Extraction speed 1.6 X
Track quality 99.9 %
Test CRC F8615485
Copy CRC F8615485
Accurately ripped (confidence 5) [7414580B] (AR v2)
Copy OK

Track 2

Filename E:\Tina Arena - Tina Arena (greatest hits & interpretations) - flac\CD1 - Retrospective\02 - The Machine's Breaking Down.wav

Pre-gap length 0:00:00.13

Peak level 98.9 %
Extraction speed 2.0 X
Track quality 100.0 %
Test CRC 26E1DD97
Copy CRC 26E1DD97
Accurately ripped (confidence 5) [0C9E2B8B] (AR v2)
Copy OK

Track 3

Filename E:\Tina Arena - Tina Arena (greatest hits & interpretations) - flac\CD1 - Retrospective\03 - Strong As Steel.wav

Pre-gap length 0:00:01.45

Peak level 98.9 %
Extraction speed 2.2 X
Track quality 100.0 %
Test CRC 199A7601
Copy CRC 199A7601
Accurately ripped (confidence 5) [6117C111] (AR v2)
Copy OK

Track 4

Filename E:\Tina Arena - Tina Arena (greatest hits & interpretations) - flac\CD1 - Retrospective\04 - Chains.wav

Pre-gap length 0:00:01.13

Peak level 98.9 %
Extraction speed 2.1 X
Track quality 99.9 %
Test CRC 34FDC178
Copy CRC 34FDC178
Accurately ripped (confidence 5) [73BC551F] (AR v2)
Copy OK

Track 5

Filename E:\Tina Arena - Tina Arena (greatest hits & interpretations) - flac\CD1 - Retrospective\05 - Sorrento Moon.wav

Pre-gap length 0:00:01.49

Peak level 98.9 %
Extraction speed 2.6 X
Track quality 100.0 %
Test CRC 94D514D3
Copy CRC 94D514D3
Accurately ripped (confidence 5) [E2D57B3E] (AR v2)
Copy OK

Track 6

Filename E:\Tina Arena - Tina Arena (greatest hits & interpretations) - flac\CD1 - Retrospective\06 - Heaven Help My Heart.wav

Pre-gap length 0:00:01.84

Peak level 98.9 %
Extraction speed 2.7 X
Track quality 100.0 %
Test CRC E6F2B453
Copy CRC E6F2B453
Accurately ripped (confidence 5) [265531C3] (AR v2)
Copy OK

Track 7

Filename E:\Tina Arena - Tina Arena (greatest hits & interpretations) - flac\CD1 - Retrospective\07 - Wasn't It Good.wav

Pre-gap length 0:00:01.45

Peak level 98.8 %
Extraction speed 2.8 X
Track quality 100.0 %
Test CRC 3BA73C04
Copy CRC 3BA73C04
Accurately ripped (confidence 5) [595615D4] (AR v2)
Copy OK

Track 8

Filename E:\Tina Arena - Tina Arena (greatest hits & interpretations) - flac\CD1 - Retrospective\08 - Burn.wav

Pre-gap length 0:00:01.33

Peak level 98.9 %
Extraction speed 2.9 X
Track quality 100.0 %
Test CRC 4F0E8B28
Copy CRC 4F0E8B28
Accurately ripped (confidence 5) [DEB33E03] (AR v2)
Copy OK

Track 9

Filename E:\Tina Arena - Tina Arena (greatest hits & interpretations) - flac\CD1 - Retrospective\09 - Now I Can Dance.wav

Pre-gap length 0:00:02.28

Peak level 98.9 %
Extraction speed 3.0 X
Track quality 100.0 %
Test CRC AF6E9263
Copy CRC AF6E9263
Accurately ripped (confidence 5) [23F69D10] (AR v2)
Copy OK

Track 10

Filename E:\Tina Arena - Tina Arena (greatest hits & interpretations) - flac\CD1 - Retrospective\10 - If I Didn't Love You.wav

Pre-gap length 0:00:01.05

Peak level 98.9 %
Extraction speed 3.3 X
Track quality 100.0 %
Test CRC 1A5CDA7D
Copy CRC 1A5CDA7D
Accurately ripped (confidence 5) [FAD53C9A] (AR v2)
Copy OK

Track 11

Filename E:\Tina Arena - Tina Arena (greatest hits & interpretations) - flac\CD1 - Retrospective\11 - Soul Mate #9.wav

Pre-gap length 0:00:01.86

Peak level 98.9 %
Extraction speed 3.1 X
Track quality 100.0 %
Test CRC 4BBEEB98
Copy CRC 4BBEEB98
Accurately ripped (confidence 5) [618E33FA] (AR v2)
Copy OK

Track 12

Filename E:\Tina Arena - Tina Arena (greatest hits & interpretations) - flac\CD1 - Retrospective\12 - Symphony Of Life.wav

Pre-gap length 0:00:02.05

Peak level 98.9 %
Extraction speed 3.1 X
Track quality 99.9 %
Test CRC F66ECFB1
Copy CRC F66ECFB1
Accurately ripped (confidence 5) [45AA0AA2] (AR v2)
Copy OK

Track 13

Filename E:\Tina Arena - Tina Arena (greatest hits & interpretations) - flac\CD1 - Retrospective\13 - Never (past tense).wav

Pre-gap length 0:00:02.01

Peak level 98.9 %
Extraction speed 3.4 X
Track quality 100.0 %
Test CRC 50ECFE43
Copy CRC 50ECFE43
Accurately ripped (confidence 5) [8DA04A7E] (AR v2)
Copy OK

Track 14

Filename E:\Tina Arena - Tina Arena (greatest hits & interpretations) - flac\CD1 - Retrospective\14 - You Set Fire To My Life.wav

Pre-gap length 0:00:02.33

Peak level 98.9 %
Extraction speed 3.6 X
Track quality 100.0 %
Test CRC AA9C5788
Copy CRC AA9C5788
Accurately ripped (confidence 5) [D09D6D24] (AR v2)
Copy OK

Track 15

Filename E:\Tina Arena - Tina Arena (greatest hits & interpretations) - flac\CD1 - Retrospective\15 - Only Lonely.wav

Pre-gap length 0:00:02.01

Peak level 98.8 %
Extraction speed 3.1 X
Track quality 99.9 %
Test CRC 4829DDC1
Copy CRC 4829DDC1
Accurately ripped (confidence 5) [B3064B55] (AR v2)
Copy OK

Track 16

Filename E:\Tina Arena - Tina Arena (greatest hits & interpretations) - flac\CD1 - Retrospective\16 - Reset All.wav

Pre-gap length 0:00:02.57

Peak level 98.9 %
Extraction speed 3.7 X
Track quality 100.0 %
Test CRC CFC303B6
Copy CRC CFC303B6
Accurately ripped (confidence 5) [FF49F9B2] (AR v2)
Copy OK

Track 17

Filename E:\Tina Arena - Tina Arena (greatest hits & interpretations) - flac\CD1 - Retrospective\17 - I Want To Love You.wav

Pre-gap length 0:00:01.46

Peak level 98.8 %
Extraction speed 3.9 X
Track quality 100.0 %
Test CRC 250A5CE2
Copy CRC 250A5CE2
Accurately ripped (confidence 4) [65847112] (AR v2)
Copy OK


All tracks accurately ripped

No errors occurred

End of status report

–– CUETools DB Plugin V2.1.6

[CTDB TOCID: fTCv0V9HlCmkt6pZPH1a6ZiF6pk-] found
Submit result: already submitted
Track | CTDB Status
1 | (14/14) Accurately ripped
2 | (14/14) Accurately ripped
3 | (14/14) Accurately ripped
4 | (14/14) Accurately ripped
5 | (14/14) Accurately ripped
6 | (14/14) Accurately ripped
7 | (14/14) Accurately ripped
8 | (14/14) Accurately ripped
9 | (14/14) Accurately ripped
10 | (14/14) Accurately ripped
11 | (14/14) Accurately ripped
12 | (14/14) Accurately ripped
13 | (14/14) Accurately ripped
14 | (14/14) Accurately ripped
15 | (14/14) Accurately ripped
16 | (14/14) Accurately ripped
17 | (14/14) Accurately ripped


==== Log checksum E1F0C37EBB1099BC83E31077029EEA40B4777538E4257BB9CA5F1C1C2C5C58C3 ====


CD2
18. Morgan Evans – If I Didn’t Love You (03:33)
19. Dannii Minogue – Sorrento Moon (feat. Tina Arena) (03:36)
20. Clare Bowen – Still Running (04:06)
21. Tina Arena, Jessica Mauboy & The Veronicas – Chains (04:01)
22. Alex Hope – Only Lonely (03:27)
23. Ben Abraham & Ainslie Wills – Wasn’t It Good (04:04)
24. David Thibault – I Need Your Body (04:35)
25. Jimmy Barnes – When You’re Ready (03:57)
26. Katie Noonan – Burn (04:48)
27. Kate Miller-Heidke – Heaven Help My Heart (04:33)
28. Tina Arena – Wouldn't It Be Good (03:52)
29. Tina Arena – I Want To Know What Love Is (06:20)
30. Tina Arena – Show Me Heaven (04:19)
31. Tina Arena – Never Tear Us Apart (02:50)

Exact Audio Copy V1.3 from 2. September 2016

EAC extraction logfile from 16. July 2017, 18:58

Tina Arena / Tina Arena (greatest hits & interpretations) - CD2

Used drive : HL-DT-STDVD-RAM GH22NS30 Adapter: 1 ID: 0

Read mode : Secure
Utilize accurate stream : Yes
Defeat audio cache : Yes
Make use of C2 pointers : No

Read offset correction : 102
Overread into Lead-In and Lead-Out : No
Fill up missing offset samples with silence : Yes
Delete leading and trailing silent blocks : No
Null samples used in CRC calculations : Yes
Used interface : Native Win32 interface for Win NT & 2000
Gap handling : Appended to previous track

Used output format : User Defined Encoder
Selected bitrate : 1024 kBit/s
Quality : High
Add ID3 tag : No
Command line compressor : C:\Program Files (x86)\Exact Audio Copy\Flac\flac.exe
Additional command line options : -8 -V -T "Artist=%artist%" -T "Title=%title%" -T "Album=%albumtitle%" -T "Date=%year%" -T "Tracknumber=%tracknr%" -T "Genre=%genre%" %source% -o %dest%


TOC of the extracted CD

Track | Start | Length | Start sector | End sector
––––––––––––––––––––––––––––-
1 | 0:00.00 | 3:34.61 | 0 | 16110
2 | 3:34.61 | 3:39.04 | 16111 | 32539
3 | 7:13.65 | 4:08.00 | 32540 | 51139
4 | 11:21.65 | 4:03.03 | 51140 | 69367
5 | 15:24.68 | 3:29.69 | 69368 | 85111
6 | 18:54.62 | 4:05.20 | 85112 | 103506
7 | 23:00.07 | 4:38.10 | 103507 | 124366
8 | 27:38.17 | 3:59.54 | 124367 | 142345
9 | 31:37.71 | 4:50.25 | 142346 | 164120
10 | 36:28.21 | 4:35.37 | 164121 | 184782
11 | 41:03.58 | 3:54.35 | 184783 | 202367
12 | 44:58.18 | 6:23.20 | 202368 | 231112
13 | 51:21.38 | 4:21.70 | 231113 | 250757
14 | 55:43.33 | 2:50.74 | 250758 | 263581


Track 1

Filename E:\Tina Arena - Tina Arena (greatest hits & interpretations) - flac\CD2 - Reimagine\01 - Morgan Evans - If I Didn't Love You.wav

Pre-gap length 0:00:02.00

Peak level 98.8 %
Extraction speed 1.3 X
Track quality 99.9 %
Test CRC A8217469
Copy CRC A8217469
Accurately ripped (confidence 4) [619C91C5] (AR v2)
Copy OK

Track 2

Filename E:\Tina Arena - Tina Arena (greatest hits & interpretations) - flac\CD2 - Reimagine\02 - Danii Minogue feat. Tina Arena - Sorrento Moon.wav

Pre-gap length 0:00:01.61

Peak level 98.9 %
Extraction speed 1.6 X
Track quality 100.0 %
Test CRC 6A0976F3
Copy CRC 6A0976F3
Accurately ripped (confidence 4) [D4A34C4B] (AR v2)
Copy OK

Track 3

Filename E:\Tina Arena - Tina Arena (greatest hits & interpretations) - flac\CD2 - Reimagine\03 - Clare Bowen - Still Running.wav

Pre-gap length 0:00:02.16

Peak level 98.9 %
Extraction speed 1.6 X
Track quality 99.9 %
Test CRC 2EAED231
Copy CRC 2EAED231
Accurately ripped (confidence 4) [1F6F87F8] (AR v2)
Copy OK

Track 4

Filename E:\Tina Arena - Tina Arena (greatest hits & interpretations) - flac\CD2 - Reimagine\04 - Tina Arena, Jessica Mauboy & The Veronicas - Chains.wav

Pre-gap length 0:00:01.46

Peak level 98.9 %
Extraction speed 1.8 X
Track quality 99.9 %
Test CRC ED865144
Copy CRC ED865144
Accurately ripped (confidence 4) [5EEBF310] (AR v2)
Copy OK

Track 5

Filename E:\Tina Arena - Tina Arena (greatest hits & interpretations) - flac\CD2 - Reimagine\05 - Alex Hope - Only Lonely.wav

Pre-gap length 0:00:01.61

Peak level 98.8 %
Extraction speed 2.1 X
Track quality 100.0 %
Test CRC 4C4E9C7F
Copy CRC 4C4E9C7F
Accurately ripped (confidence 4) [D381A36E] (AR v2)
Copy OK

Track 6

Filename E:\Tina Arena - Tina Arena (greatest hits & interpretations) - flac\CD2 - Reimagine\06 - Ben Abraham & Ainsile Wills - Wasn't It Good.wav

Pre-gap length 0:00:02.01

Peak level 98.9 %
Extraction speed 2.3 X
Track quality 100.0 %
Test CRC 36D7BA48
Copy CRC 36D7BA48
Accurately ripped (confidence 4) [C40C7E0A] (AR v2)
Copy OK

Track 7

Filename E:\Tina Arena - Tina Arena (greatest hits & interpretations) - flac\CD2 - Reimagine\07 - David Thibault - I Need Your Body.wav

Pre-gap length 0:00:01.18

Peak level 98.9 %
Extraction speed 2.5 X
Track quality 100.0 %
Test CRC 2E3D3B5B
Copy CRC 2E3D3B5B
Accurately ripped (confidence 4) [226BCA16] (AR v2)
Copy OK

Track 8

Filename E:\Tina Arena - Tina Arena (greatest hits & interpretations) - flac\CD2 - Reimagine\08 - Jimmy Barnes - When You're Ready.wav

Pre-gap length 0:00:02.14

Peak level 98.2 %
Extraction speed 2.5 X
Track quality 100.0 %
Test CRC ADBDBCBE
Copy CRC ADBDBCBE
Accurately ripped (confidence 4) [81110D11] (AR v2)
Copy OK

Track 9

Filename E:\Tina Arena - Tina Arena (greatest hits & interpretations) - flac\CD2 - Reimagine\09 - Katie Noonan - Burn.wav

Pre-gap length 0:00:02.18

Peak level 100.0 %
Extraction speed 2.7 X
Track quality 100.0 %
Test CRC 893B3696
Copy CRC 893B3696
Accurately ripped (confidence 4) [FE8C6444] (AR v2)
Copy OK

Track 10

Filename E:\Tina Arena - Tina Arena (greatest hits & interpretations) - flac\CD2 - Reimagine\10 - Kate Miller-Heidke - Heaven Help My Heart.wav

Pre-gap length 0:00:01.98

Peak level 98.8 %
Extraction speed 2.8 X
Track quality 100.0 %
Test CRC 88F96C5C
Copy CRC 88F96C5C
Accurately ripped (confidence 4) [42499EBB] (AR v2)
Copy OK

Track 11

Filename E:\Tina Arena - Tina Arena (greatest hits & interpretations) - flac\CD2 - Reimagine\11 - Tina Arena - Wouldn't It Be Good.wav

Pre-gap length 0:00:01.93

Peak level 99.4 %
Extraction speed 2.8 X
Track quality 100.0 %
Test CRC BEF7F84A
Copy CRC BEF7F84A
Accurately ripped (confidence 4) [38E6165A] (AR v2)
Copy OK

Track 12

Filename E:\Tina Arena - Tina Arena (greatest hits & interpretations) - flac\CD2 - Reimagine\12 - Tina Arena - I Want To Know What Love Is.wav

Pre-gap length 0:00:02.38

Peak level 98.9 %
Extraction speed 3.1 X
Track quality 100.0 %
Test CRC 2ED5D747
Copy CRC 2ED5D747
Accurately ripped (confidence 4) [2B8C4431] (AR v2)
Copy OK

Track 13

Filename E:\Tina Arena - Tina Arena (greatest hits & interpretations) - flac\CD2 - Reimagine\13 - Tina Arena - Show Me Heaven.wav

Pre-gap length 0:00:02.30

Peak level 98.9 %
Extraction speed 2.8 X
Track quality 99.9 %
Test CRC 0F585B85
Copy CRC 0F585B85
Accurately ripped (confidence 4) [4D4709AD] (AR v2)
Copy OK

Track 14

Filename E:\Tina Arena - Tina Arena (greatest hits & interpretations) - flac\CD2 - Reimagine\14 - Tina Arena - Never Tear Us Apart.wav

Pre-gap length 0:00:02.33

Peak level 83.9 %
Extraction speed 2.5 X
Track quality 99.9 %
Test CRC 227F4D57
Copy CRC 227F4D57
Accurately ripped (confidence 3) [64E7043F] (AR v2)
Copy OK


All tracks accurately ripped

No errors occurred

End of status report

–– CUETools DB Plugin V2.1.6

[CTDB TOCID: OEhyWpA7zOJj7IXLCVYD9uEFpQk-] found
Submit result: OEhyWpA7zOJj7IXLCVYD9uEFpQk- has been confirmed
Track | CTDB Status
1 | (13/13) Accurately ripped
2 | (13/13) Accurately ripped
3 | (13/13) Accurately ripped
4 | (13/13) Accurately ripped
5 | (13/13) Accurately ripped
6 | (13/13) Accurately ripped
7 | (13/13) Accurately ripped
8 | (13/13) Accurately ripped
9 | (13/13) Accurately ripped
10 | (13/13) Accurately ripped
11 | (13/13) Accurately ripped
12 | (13/13) Accurately ripped
13 | (13/13) Accurately ripped
14 | (13/13) Accurately ripped


==== Log checksum 1F343C5BD3542046FC2FA3D11C189E2D945CF2A7A53ED2C41B360506DE5ED85A ====


Thanks to the Original customer.