Subcategories

Toby Keith - 35 Biggest Hits (2008)

Posted By: countryfreak
Toby Keith - 35 Biggest Hits (2008)

Toby Keith - 35 Biggest Hits (2008)
2CD/EAC Rip | FLAC (Image) + CUE + LOG | Covers | 944 MBs
Genre: Country | Label: Show Dog Nashville | Catalog Number: 103340
RAR 5% Rec. | Rapidshare + Filesonic | Release Date: May 6, 2008

For many mainstream listeners, Toby Keith first appeared on their radar in 2002 with "Courtesy of the Red, White and Blue (The Angry American)," the blistering counterpoint to Alan Jackson's sorrowful "Where Were You When the World Stopped Turning" that turned Keith into a talk radio phenomenon and a genuine American star. Like many overnight success stories, Toby Keith's celebrity didn't happen overnight – it was the beginning of his second act, as the 2008 double-disc compilation 35 Biggest Hits makes plain. 35 Biggest Hits divides neatly into a disc of '90s hits and a disc of new-millennium singles, stopping with 2006's White Trash with Money (2007's Big Dog Daddy apparently falling under another contract and thereby absent from this comp) but adding the new recording "She's a Hottie," an OK rocker that feels like the contractual obligation it likely is. This split makes sense chronologically but it also makes sense musically, as Keith's '90s hits were much softer than his 2000s singles. After establishing his modern-day outlaw stance with "Should've Been a Cowboy" and "A Little Less Talk and a Lot More Action" in 1993, Keith spent much of the '90s crooning ballads vaguely reminiscent of Ronnie Milsap's early-'80s hits (such as the lovely "Does That Blue Moon Ever Shine on You"), but when he jumped from Mercury Nashville to DreamWorks in 1999, his sound got bigger and tougher, eventually leading to the Waylon-indebted swagger of "Beer for My Horses" and "Honky Tonk U." Most musicians do their most adventurous work earlier in their careers, but 35 Biggest Hits shows that Toby Keith is the opposite, getting bolder and riskier as the years go by. Such a statement suggests that his earlier records weren't much good but that's not the case at all; he had loose-limbed barroom rockers like "You Ain't Much Fun" early in his career and all of the ballads are very good, showcasing a sensitive side that has been overshadowed by the outsized persona he's been working since Pull My Chain. Listening to 35 Biggest Hits, it's easy to appreciate how much Keith has changed over the years and how he's as good now as he ever was, making this a rather revealing career overview and an excellent introduction to a singer who, no matter how bright his star shines, still tends to be a bit underrated.–by Stephen Thomas Erlewine


DISC 1
––––––
Tracklist
––––––
1. Should've Been A Cowboy 3:28
2. He Ain't Worth Missing 3:04
3. A Little Less Talk And A Lot More Action 2:50
4. Wish I Didn't Know Now 3:27
5. Who's That Man 3:32
6. Upstairs Downtown 4:27
7. You Ain't Much Fun 2:27
8. Big Ol' Truck 3:43
9. Does That Blue Moon Ever Shine On You 3:51
10. A Woman's Touch 5:36
11. Me Too 3:54
12. We Were In Love 4:19
13. I'm So Happy I Can't Stop Crying (duet with Sting) 4:03
14. Dream Walkin' 3:55
15. Getcha Some 3:18
16. How Do You Like Me Now?! 3:25
17. Country Comes To Town 3:38
18. You Shouldn't Kiss Me Like This 3:41

Exact Audio Copy V1.0 beta 3 from 29. August 2011

EAC extraction logfile from 13. December 2011, 14:06

Toby Keith / 35 Biggest Hits (Disc 1 of 2)

Used drive : ASUS DRW-24B1LT Adapter: 3 ID: 0

Read mode : Secure
Utilize accurate stream : Yes
Defeat audio cache : Yes
Make use of C2 pointers : No

Read offset correction : 6
Overread into Lead-In and Lead-Out : No
Fill up missing offset samples with silence : Yes
Delete leading and trailing silent blocks : No
Null samples used in CRC calculations : Yes
Used interface : Native Win32 interface for Win NT & 2000

Used output format : User Defined Encoder
Selected bitrate : 1024 kBit/s
Quality : High
Add ID3 tag : Yes
Command line compressor : C:\Program Files\Exact Audio Copy\Flac\flac.exe
Additional command line options : -6 -V -T "ARTIST=%artist%" -T "TITLE=%title%" -T "ALBUM=%albumtitle%" -T "DATE=%year%" -T "TRACKNUMBER=%tracknr%" -T "GENRE=%genre%" -T "COMMENT=%comment%" %hascover%–picture="%coverfile%"%hascover% %source% -o %dest%


TOC of the extracted CD

Track | Start | Length | Start sector | End sector
––––––––––––––––––––––––––––-
1 | 0:00.00 | 3:28.31 | 0 | 15630
2 | 3:28.31 | 3:04.54 | 15631 | 29484
3 | 6:33.10 | 2:50.01 | 29485 | 42235
4 | 9:23.11 | 3:27.48 | 42236 | 57808
5 | 12:50.59 | 3:32.19 | 57809 | 73727
6 | 16:23.03 | 4:27.27 | 73728 | 93779
7 | 20:50.30 | 2:27.17 | 93780 | 104821
8 | 23:17.47 | 3:43.55 | 104822 | 121601
9 | 27:01.27 | 3:51.05 | 121602 | 138931
10 | 30:52.32 | 5:36.17 | 138932 | 164148
11 | 36:28.49 | 3:54.45 | 164149 | 181743
12 | 40:23.19 | 4:19.65 | 181744 | 201233
13 | 44:43.09 | 4:03.07 | 201234 | 219465
14 | 48:46.16 | 3:55.48 | 219466 | 237138
15 | 52:41.64 | 3:18.56 | 237139 | 252044
16 | 56:00.45 | 3:25.69 | 252045 | 267488
17 | 59:26.39 | 3:38.00 | 267489 | 283838
18 | 63:04.39 | 3:41.05 | 283839 | 300418


Range status and errors

Selected range

Filename D:\MUSIK\Toby Keith - 35 Biggest Hits [FLAC] (2008)\Disc 1\Toby Keith - 35 Biggest Hits (Disc 1 of 2).wav

Peak level 99.3 %
Extraction speed 7.9 X
Range quality 99.9 %
Copy CRC 38B18699
Copy OK

No errors occurred


AccurateRip summary

Track 1 cannot be verified as accurate (confidence 59) [C407DCD6], AccurateRip returned [B22ED125] (AR v2)
Track 2 cannot be verified as accurate (confidence 57) [2A3514FC], AccurateRip returned [5EE55F28] (AR v2)
Track 3 cannot be verified as accurate (confidence 57) [419F5813], AccurateRip returned [738DE7E0] (AR v2)
Track 4 cannot be verified as accurate (confidence 57) [532E3680], AccurateRip returned [FC07D3D6] (AR v2)
Track 5 cannot be verified as accurate (confidence 58) [791DE606], AccurateRip returned [DF507138] (AR v2)
Track 6 cannot be verified as accurate (confidence 59) [6D7AFC68], AccurateRip returned [4BA3E4BC] (AR v2)
Track 7 cannot be verified as accurate (confidence 58) [F917036A], AccurateRip returned [2D14D5D7] (AR v2)
Track 8 cannot be verified as accurate (confidence 58) [371088D1], AccurateRip returned [0C863CC5] (AR v2)
Track 9 cannot be verified as accurate (confidence 57) [7A0FB5E3], AccurateRip returned [A69811F5] (AR v2)
Track 10 cannot be verified as accurate (confidence 59) [92C06DC3], AccurateRip returned [D95D15E1] (AR v2)
Track 11 cannot be verified as accurate (confidence 58) [937CF166], AccurateRip returned [7A0524CF] (AR v2)
Track 12 cannot be verified as accurate (confidence 58) [C64F1B0F], AccurateRip returned [1F7970E2] (AR v2)
Track 13 cannot be verified as accurate (confidence 58) [8D10986B], AccurateRip returned [5F6E2C7F] (AR v2)
Track 14 cannot be verified as accurate (confidence 58) [2BAED1DC], AccurateRip returned [9834EE2D] (AR v2)
Track 15 cannot be verified as accurate (confidence 58) [66BAFCC4], AccurateRip returned [3E432A2D] (AR v2)
Track 16 cannot be verified as accurate (confidence 59) [29CA74E6], AccurateRip returned [F544237F] (AR v2)
Track 17 cannot be verified as accurate (confidence 58) [CCE6EA88], AccurateRip returned [3C9B55BA] (AR v2)
Track 18 cannot be verified as accurate (confidence 58) [3D38E9B4], AccurateRip returned [ADC55FA6] (AR v2)

No tracks could be verified as accurate
You may have a different pressing from the one(s) in the database

End of status report

==== Log checksum 6D5967CD3E735C02527AED98B6F9C6C68B9909A8E4FF6CD4BF1CD6EF1E0458A5 ====


DISC 2
––––––
Tracklist
––––––
1. I'm Just Talkin' About Tonight 2:45
2. I Wanna Talk About Me 3:03
3. My List 3:19
4. Courtesy Of The Red, White And Blue (The Angry American) 3:15
5. Who's Your Daddy? 3:58
6. Beer For My Horses (duet with Willie Nelson) 3:31
7. I Love This Bar 5:33
8. American Soldier 4:22
9. Toby Keith / Whiskey Girl 3:59
10. Stays In Mexico 3:34
11. Mockingbird (duet with Krystal Keith) 3:29
12. Honkytonk U 3:34
13. As Good As I Once Was 3:47
14. Big Blue Note 2:57
15. Get Drunk And Be Somebody 3:00
16. A Little Too Late 4:09
17. She's A Hottie 3:09

Exact Audio Copy V1.0 beta 3 from 29. August 2011

EAC extraction logfile from 13. December 2011, 14:32

Toby Keith / 35 Biggest Hits (Disc 2 of 2)

Used drive : ASUS DRW-24B1LT Adapter: 3 ID: 0

Read mode : Secure
Utilize accurate stream : Yes
Defeat audio cache : Yes
Make use of C2 pointers : No

Read offset correction : 6
Overread into Lead-In and Lead-Out : No
Fill up missing offset samples with silence : Yes
Delete leading and trailing silent blocks : No
Null samples used in CRC calculations : Yes
Used interface : Native Win32 interface for Win NT & 2000

Used output format : User Defined Encoder
Selected bitrate : 1024 kBit/s
Quality : High
Add ID3 tag : Yes
Command line compressor : C:\Program Files\Exact Audio Copy\Flac\flac.exe
Additional command line options : -6 -V -T "ARTIST=%artist%" -T "TITLE=%title%" -T "ALBUM=%albumtitle%" -T "DATE=%year%" -T "TRACKNUMBER=%tracknr%" -T "GENRE=%genre%" -T "COMMENT=%comment%" %hascover%–picture="%coverfile%"%hascover% %source% -o %dest%


TOC of the extracted CD

Track | Start | Length | Start sector | End sector
––––––––––––––––––––––––––––-
1 | 0:00.00 | 2:45.10 | 0 | 12384
2 | 2:45.10 | 3:03.37 | 12385 | 26146
3 | 5:48.47 | 3:19.61 | 26147 | 41132
4 | 9:08.33 | 3:15.03 | 41133 | 55760
5 | 12:23.36 | 3:58.41 | 55761 | 73651
6 | 16:22.02 | 3:31.26 | 73652 | 89502
7 | 19:53.28 | 5:33.34 | 89503 | 114511
8 | 25:26.62 | 4:22.34 | 114512 | 134195
9 | 29:49.21 | 3:59.07 | 134196 | 152127
10 | 33:48.28 | 3:34.60 | 152128 | 168237
11 | 37:23.13 | 3:29.63 | 168238 | 183975
12 | 40:53.01 | 3:34.08 | 183976 | 200033
13 | 44:27.09 | 3:47.67 | 200034 | 217125
14 | 48:15.01 | 2:57.08 | 217126 | 230408
15 | 51:12.09 | 3:00.10 | 230409 | 243918
16 | 54:12.19 | 4:09.28 | 243919 | 262621
17 | 58:21.47 | 3:08.69 | 262622 | 276790


Range status and errors

Selected range

Filename D:\MUSIK\Toby Keith - 35 Biggest Hits [FLAC] (2008)\Disc 2\Toby Keith - 35 Biggest Hits (Disc 2 of 2).wav

Peak level 99.6 %
Extraction speed 7.6 X
Range quality 99.9 %
Copy CRC 34135EF5
Copy OK

No errors occurred


AccurateRip summary

Track 1 cannot be verified as accurate (confidence 56) [258E17CA], AccurateRip returned [24B21E7C] (AR v2)
Track 2 cannot be verified as accurate (confidence 56) [A0FE708F], AccurateRip returned [0BA57542] (AR v2)
Track 3 cannot be verified as accurate (confidence 56) [D097DEC7], AccurateRip returned [D028A8BB] (AR v2)
Track 4 cannot be verified as accurate (confidence 56) [6E7F5588], AccurateRip returned [00703C2E] (AR v2)
Track 5 cannot be verified as accurate (confidence 55) [1161F3D9], AccurateRip returned [71EAC771] (AR v2)
Track 6 cannot be verified as accurate (confidence 55) [A2F546E7], AccurateRip returned [96F7853F] (AR v2)
Track 7 cannot be verified as accurate (confidence 56) [18C34948], AccurateRip returned [C5EC719A] (AR v2)
Track 8 cannot be verified as accurate (confidence 56) [167318B9], AccurateRip returned [964E289C] (AR v2)
Track 9 cannot be verified as accurate (confidence 55) [194D521D], AccurateRip returned [0CEF44E9] (AR v2)
Track 10 cannot be verified as accurate (confidence 54) [7236875D], AccurateRip returned [F0A8A8C3] (AR v2)
Track 11 cannot be verified as accurate (confidence 55) [00D532C1], AccurateRip returned [1CD7B33B] (AR v2)
Track 12 cannot be verified as accurate (confidence 55) [10904382], AccurateRip returned [26540DCA] (AR v2)
Track 13 cannot be verified as accurate (confidence 56) [438B3297], AccurateRip returned [AE987CD2] (AR v2)
Track 14 cannot be verified as accurate (confidence 55) [DD8D2095], AccurateRip returned [EEF3EAE2] (AR v2)
Track 15 cannot be verified as accurate (confidence 54) [558B97E8], AccurateRip returned [B5700E8B] (AR v2)
Track 16 cannot be verified as accurate (confidence 54) [E9104F8A], AccurateRip returned [A8A5398F] (AR v2)
Track 17 cannot be verified as accurate (confidence 53) [894757BF], AccurateRip returned [8D760AE8] (AR v2)

No tracks could be verified as accurate
You may have a different pressing from the one(s) in the database

End of status report

==== Log checksum 131DF32AFCF55DAD016C848B465E583679B0CD85DF7EECF78DAB627F4BDED507 ====


Toby Keith - 35 Biggest Hits (2008)

Toby Keith - Christmas To Christmas (1995)

In case you encounter dead links in any of my posts, please send me a private message !!!!

NO mirrors and/or direct links in your comments, please !!!!

The files are interchangeable!

****Visit My Blog****
**** Rapidshare ****

Part 1|Part 2|Part 3|Part 4
Part 5|Part 6|Part 7|Part 8|Part 9|Part 10

**** Filesonic ****

Part 1|Part 2|Part 3|Part 4
Part 5|Part 6|Part 7|Part 8|Part 9|Part 10

***** Pass: countryfreak *****