Subcategories

Todd Rundgren - White Knight (2017)

Posted By: SERTiL
Todd Rundgren - White Knight (2017)

Todd Rundgren - White Knight
EAC Rip | FLAC (tracks)+cue, log, m3u, front cover | 52:40 min | 332 MB
Label: Cleopatra Records | Tracks: 15 | Rls.date: 2017
Pop Rock

Veteran producer, pioneering performer and legendary songwriter Todd Rundgren returns with a 2017 album featuring a stellar line-up of all-star guest performers! White Knight showcases Rundgren's incredibly diverse range of styles from soulful art rock to ambient synth pop and includes performances from Rundgren's equally diverse musical companions such as Trent Reznor, Donald Fagen (of Steely Dan), Joe Walsh (of The Eagles), Daryl Hall, Dam Funk, Joe Satriani, Robyn and others. Includes the tracks "I Got Your Back," "Chance for Us," "Tin Foil Hat," "Sleep," "That Could Have Been Me," "Deaf Ears," "This Is Not a Drill" and others.

TRACKLIST
01 - Come
02 - I Got Your Back (feat. KK Watson & DaM FunK)
03 - Chance for Us (feat. Daryl Hall & Bobby Strickland)
04 - Fiction
05 - Beginning (Of the End) (feat. John Boutté)
06 - Tin Foil Hat (feat. Donald Fagen)
07 - Look at Me (feat. Michael Holman)
08 - Let's Do This (feat. Moe Berg)
09 - Sleep (feat. Joe Walsh)
10 - That Could Have Been Me (feat. Robyn)
11 - Deaf Ears (feat. Trent Reznor & Atticus Ross)
12 - Naked & Afraid (feat. Bettye LaVette)
13 - Buy My T
14 - Wouldn't You Like to Know (feat. Rebop Rundgren)
15 - This Is Not a Drill (feat. Joe Satriani, Kasim Sulton & Prairie Prince)

Exact Audio Copy V1.1 from 23. June 2015

EAC extraction logfile from 21. May 2017, 18:43

Todd Rundgren / White Knight

Used drive : HL-DT-STDVDRAM GT50N Adapter: 1 ID: 0

Read mode : Secure
Utilize accurate stream : Yes
Defeat audio cache : Yes
Make use of C2 pointers : No

Read offset correction : 103
Overread into Lead-In and Lead-Out : No
Fill up missing offset samples with silence : Yes
Delete leading and trailing silent blocks : No
Null samples used in CRC calculations : Yes
Used interface : Native Win32 interface for Win NT & 2000
Gap handling : Appended to previous track

Used output format : User Defined Encoder
Selected bitrate : 1024 kBit/s
Quality : High
Add ID3 tag : No
Command line compressor : C:\Program Files (x86)\Exact Audio Copy\Flac\flac.exe
Additional command line options : -8 -e -V -T "ARTIST=%artist%" -T "TITLE=%title%" -T "ALBUM=%albumtitle%" -T "DATE=%year%" -T "TRACKNUMBER=%tracknr%" -T "GENRE=%genre%" -T "PERFORMER=%albuminterpret%" -T "COMPOSER=%composer%" %haslyrics%–tag-from-file=LYRICS="%lyricsfile%"%haslyrics% -T "ALBUMARTIST=%albumartist%" -T "DISCNUMBER=%cdnumber%" -T "TOTALDISCS=%totalcds%" -T "TOTALTRACKS=%numtracks%" -T "COMMENT=%comment%" %source% -o %dest%


TOC of the extracted CD

Track | Start | Length | Start sector | End sector
––––––––––––––––––––––––––––-
1 | 0:00.00 | 4:07.46 | 0 | 18570
2 | 4:07.46 | 3:38.50 | 18571 | 34970
3 | 7:46.21 | 4:14.08 | 34971 | 54028
4 | 12:00.29 | 3:41.53 | 54029 | 70656
5 | 15:42.07 | 3:55.06 | 70657 | 88287
6 | 19:37.13 | 3:24.01 | 88288 | 103588
7 | 23:01.14 | 3:08.25 | 103589 | 117713
8 | 26:09.39 | 3:07.36 | 117714 | 131774
9 | 29:17.00 | 2:52.33 | 131775 | 144707
10 | 32:09.33 | 3:18.58 | 144708 | 159615
11 | 35:28.16 | 2:58.17 | 159616 | 172982
12 | 38:26.33 | 3:57.02 | 172983 | 190759
13 | 42:23.35 | 3:10.38 | 190760 | 205047
14 | 45:33.73 | 3:53.58 | 205048 | 222580
15 | 49:27.56 | 3:18.72 | 222581 | 237502


Track 1

Filename C:\Rips v2\Todd Rundgren - White Knight (FLAC)\01 - Come.wav

Pre-gap length 0:00:02.00

Peak level 100.0 %
Extraction speed 1.2 X
Track quality 100.0 %
Test CRC CFC6D942
Copy CRC CFC6D942
Track not present in AccurateRip database
Copy OK

Track 2

Filename C:\Rips v2\Todd Rundgren - White Knight (FLAC)\02 - I Got Your Back (feat. KK Watson and Dam-Funk).wav

Peak level 100.0 %
Extraction speed 1.3 X
Track quality 100.0 %
Test CRC 10DDC974
Copy CRC 10DDC974
Track not present in AccurateRip database
Copy OK

Track 3

Filename C:\Rips v2\Todd Rundgren - White Knight (FLAC)\03 - Chance For Us (feat. Daryl Hall & Bobby Strickland).wav

Peak level 100.0 %
Extraction speed 1.5 X
Track quality 100.0 %
Test CRC CAD2B3AA
Copy CRC CAD2B3AA
Track not present in AccurateRip database
Copy OK

Track 4

Filename C:\Rips v2\Todd Rundgren - White Knight (FLAC)\04 - Fiction.wav

Peak level 100.0 %
Extraction speed 1.5 X
Track quality 100.0 %
Test CRC 1CCA5448
Copy CRC 1CCA5448
Track not present in AccurateRip database
Copy OK

Track 5

Filename C:\Rips v2\Todd Rundgren - White Knight (FLAC)\05 - Beginning (Of the End) (feat. John Boutte).wav

Peak level 100.0 %
Extraction speed 1.7 X
Track quality 100.0 %
Test CRC 23E352F5
Copy CRC 23E352F5
Track not present in AccurateRip database
Copy OK

Track 6

Filename C:\Rips v2\Todd Rundgren - White Knight (FLAC)\06 - Tin Foil Hat (feat. Donald Fagen).wav

Peak level 100.0 %
Extraction speed 1.7 X
Track quality 100.0 %
Test CRC CAFA19AD
Copy CRC CAFA19AD
Track not present in AccurateRip database
Copy OK

Track 7

Filename C:\Rips v2\Todd Rundgren - White Knight (FLAC)\07 - Look at Me (feat. Michael Holman).wav

Peak level 95.1 %
Extraction speed 1.8 X
Track quality 100.0 %
Test CRC 83838031
Copy CRC 83838031
Track not present in AccurateRip database
Copy OK

Track 8

Filename C:\Rips v2\Todd Rundgren - White Knight (FLAC)\08 - Let's Do This (ft. Moe Berg).wav

Peak level 100.0 %
Extraction speed 1.8 X
Track quality 100.0 %
Test CRC F2F2A46A
Copy CRC F2F2A46A
Track not present in AccurateRip database
Copy OK

Track 9

Filename C:\Rips v2\Todd Rundgren - White Knight (FLAC)\09 - Sleep (ft. Joe Walsh).wav

Peak level 100.0 %
Extraction speed 1.9 X
Track quality 100.0 %
Test CRC 7445EAB9
Copy CRC 7445EAB9
Track not present in AccurateRip database
Copy OK

Track 10

Filename C:\Rips v2\Todd Rundgren - White Knight (FLAC)\10 - That Could Have Been Me (feat. Robyn).wav

Peak level 100.0 %
Extraction speed 2.0 X
Track quality 100.0 %
Test CRC D5AFB8F6
Copy CRC D5AFB8F6
Track not present in AccurateRip database
Copy OK

Track 11

Filename C:\Rips v2\Todd Rundgren - White Knight (FLAC)\11 - Deaf Ears (feat. Trent Reznor & Atticus Ross).wav

Peak level 93.2 %
Extraction speed 2.0 X
Track quality 100.0 %
Test CRC D69D3A5C
Copy CRC D69D3A5C
Track not present in AccurateRip database
Copy OK

Track 12

Filename C:\Rips v2\Todd Rundgren - White Knight (FLAC)\12 - Naked & Afraid (feat. Bettye LaVette).wav

Peak level 89.7 %
Extraction speed 1.9 X
Track quality 99.9 %
Test CRC 41D1BAE9
Copy CRC 41D1BAE9
Track not present in AccurateRip database
Copy OK

Track 13

Filename C:\Rips v2\Todd Rundgren - White Knight (FLAC)\13 - Buy My T.wav

Peak level 100.0 %
Extraction speed 2.2 X
Track quality 100.0 %
Test CRC 70A909D4
Copy CRC 70A909D4
Track not present in AccurateRip database
Copy OK

Track 14

Filename C:\Rips v2\Todd Rundgren - White Knight (FLAC)\14 - Wouldn't You Like to Know (feat. Rebop Rundgren).wav

Peak level 100.0 %
Extraction speed 2.3 X
Track quality 100.0 %
Test CRC 65A82D42
Copy CRC 65A82D42
Track not present in AccurateRip database
Copy OK

Track 15

Filename C:\Rips v2\Todd Rundgren - White Knight (FLAC)\15 - This is Not a Drill (feat. Joe Satriani, Prairie Prince & Kasim Sulton).wav

Peak level 100.0 %
Extraction speed 2.3 X
Track quality 100.0 %
Test CRC CA05528B
Copy CRC CA05528B
Track not present in AccurateRip database
Copy OK


None of the tracks are present in the AccurateRip database

No errors occurred

End of status report

–– CUETools DB Plugin V2.1.6

[CTDB TOCID: sb8vzoaH.YQVxmx8uF3TJCX4OVM-] found
Submit result: sb8vzoaH.YQVxmx8uF3TJCX4OVM- has been confirmed
Track | CTDB Status
1 | (9/9) Accurately ripped
2 | (9/9) Accurately ripped
3 | (9/9) Accurately ripped
4 | (9/9) Accurately ripped
5 | (9/9) Accurately ripped
6 | (9/9) Accurately ripped
7 | (9/9) Accurately ripped
8 | (9/9) Accurately ripped
9 | (9/9) Accurately ripped
10 | (9/9) Accurately ripped
11 | (9/9) Accurately ripped
12 | (9/9) Accurately ripped
13 | (9/9) Accurately ripped
14 | (9/9) Accurately ripped
15 | (9/9) Accurately ripped


==== Log checksum 9A38A19927828DD166E035974A31DB21BD350D293B0DE96DC35CA81C8F6509CA ====


Thanks to the Original customer.