Subcategories
Please register here if you want to download anything!

If domain in your address bar is different from the list below
PLEASE LEAVE THAT SITE IMMEDIATELY
❗IT'S A DANGEROUS FAKE❗



Spicy Magazines for Men! ;-)

Tom Petty & The Heartbreakers - Greatest Hits (1993)

Posted By: v3122
Tom Petty & The Heartbreakers - Greatest Hits (1993)

Tom Petty & The Heartbreakers - Greatest Hits (1993)
EAC | Flac(Image) + Cue + Log & MP3 CBR 320Kbps
MCA MCAD-10813 | ~ 461 or 155 Mb | Scans(png) -> 170 Mb
Classic Rock / Southern Rock

Greatest Hits is a lean yet complete overview of Tom Petty & the Heartbreakers' biggest singles from their first prime. Sure, it's possible to pinpoint a few great songs missing, but the group had a lot of great songs during the late '70s and '80s. This rounds up the biggest hits from that era, and in doing so, it turns into a succinct summary of the band at the top of its game. Everything from "American Girl" to "Free Fallin'" is included, with 18 tracks proving that Petty was one of the best rockers of his time.

by Stephen Thomas Erlewine, allmusic
Tom Petty & The Heartbreakers - Greatest Hits (1993)


Tom Petty & The Heartbreakers - Greatest Hits (1993):

Tom Petty & The Heartbreakers - Greatest Hits (1993)

Tracklist:

01. American Girl [0:03:32.15]
02. Breakdown [0:02:42.60]
03. Listen To Her Heart [0:03:03.08]
04. I Need To Know [0:02:23.35]
05. Refugee [0:03:22.00]
06. Don't Do Me Like That [0:02:42.45]
07. Even The Losers [0:03:38.47]
08. Here Comes My Girl [0:04:25.10]
09. The Waiting [0:03:59.03]
10. You Got Lucky [0:03:36.07]
11. Don't Come Around Here No More [0:05:04.05]
12. I Won't Back Down [0:02:56.50]
13. Runnin' Down A Dream [0:04:23.20]
14. Free Fallin' [0:04:15.50]
15. Learning To Fly [0:04:01.70]
16. Into The Great Wide Open [0:03:44.20]
17. Mary Jane's Last Dance [0:04:33.45]
18. Something In The Air [0:03:19.13]

Exact Audio Copy V1.0 beta 3 from 29. August 2011

EAC extraction logfile from 15. December 2013, 20:03

Tom Petty & The Heartbreakers / Greatest Hits

Used drive : PLEXTOR DVDR PX-L890SA Adapter: 1 ID: 0

Read mode : Secure
Utilize accurate stream : Yes
Defeat audio cache : Yes
Make use of C2 pointers : No

Read offset correction : 6
Overread into Lead-In and Lead-Out : No
Fill up missing offset samples with silence : Yes
Delete leading and trailing silent blocks : No
Null samples used in CRC calculations : Yes
Used interface : Native Win32 interface for Win NT & 2000

Used output format : User Defined Encoder
Selected bitrate : 768 kBit/s
Quality : High
Add ID3 tag : No
Command line compressor : G:\Program Files\Exact Audio Copy\FLAC\FLAC.EXE
Additional command line options : -V -8 -T "Date=%year%" -T "Genre=%genre%" %source%


TOC of the extracted CD

Track | Start | Length | Start sector | End sector
––––––––––––––––––––––––––––-
1 | 0:00.00 | 3:32.15 | 0 | 15914
2 | 3:32.15 | 2:42.60 | 15915 | 28124
3 | 6:15.00 | 3:03.08 | 28125 | 41857
4 | 9:18.08 | 2:23.35 | 41858 | 52617
5 | 11:41.43 | 3:22.00 | 52618 | 67767
6 | 15:03.43 | 2:42.45 | 67768 | 79962
7 | 17:46.13 | 3:38.47 | 79963 | 96359
8 | 21:24.60 | 4:25.10 | 96360 | 116244
9 | 25:49.70 | 3:59.03 | 116245 | 134172
10 | 29:48.73 | 3:36.07 | 134173 | 150379
11 | 33:25.05 | 5:04.05 | 150380 | 173184
12 | 38:29.10 | 2:56.50 | 173185 | 186434
13 | 41:25.60 | 4:23.20 | 186435 | 206179
14 | 45:49.05 | 4:15.50 | 206180 | 225354
15 | 50:04.55 | 4:01.70 | 225355 | 243499
16 | 54:06.50 | 3:44.20 | 243500 | 260319
17 | 57:50.70 | 4:33.45 | 260320 | 280839
18 | 62:24.40 | 3:19.13 | 280840 | 295777


Range status and errors

Selected range

Filename H:\MUSIC\COLLECTION\Tom Petty\1993 - Greatest Hits\Greatest Hits.wav

Peak level 98.8 %
Extraction speed 6.0 X
Range quality 100.0 %
Test CRC 5593CCD9
Copy CRC 5593CCD9
Copy OK

No errors occurred


AccurateRip summary

Track 1 accurately ripped (confidence 40) [12CB388C] (AR v2)
Track 2 accurately ripped (confidence 41) [2B4D39CA] (AR v2)
Track 3 accurately ripped (confidence 41) [7F67BF1A] (AR v2)
Track 4 accurately ripped (confidence 40) [13A6CF21] (AR v2)
Track 5 accurately ripped (confidence 41) [7762C836] (AR v2)
Track 6 accurately ripped (confidence 41) [D54375BC] (AR v2)
Track 7 accurately ripped (confidence 41) [043FAE8B] (AR v2)
Track 8 accurately ripped (confidence 40) [BE9886E2] (AR v2)
Track 9 accurately ripped (confidence 40) [40C08181] (AR v2)
Track 10 accurately ripped (confidence 40) [F594D338] (AR v2)
Track 11 accurately ripped (confidence 40) [844D725E] (AR v2)
Track 12 accurately ripped (confidence 41) [97F91422] (AR v2)
Track 13 accurately ripped (confidence 39) [CCB33E97] (AR v2)
Track 14 accurately ripped (confidence 40) [F6676C42] (AR v2)
Track 15 accurately ripped (confidence 36) [A8C9C032] (AR v2)
Track 16 accurately ripped (confidence 40) [E4A3549D] (AR v2)
Track 17 accurately ripped (confidence 40) [DC9C96A6] (AR v2)
Track 18 accurately ripped (confidence 39) [974830EF] (AR v2)

All tracks accurately ripped

End of status report

–– CUETools DB Plugin V2.1.3

[CTDB TOCID: iN9HFx90AGkoKsQbJmkAGYp2dhc-] found, Submit result: iN9HFx90AGkoKsQbJmkAGYp2dhc- has been confirmed
[4e997b3e] (113/114) Accurately ripped
[3e097169] (001/114) No match


==== Log checksum 4F1F1086D8BE7066544F1B7D6BB48E322F7E1C2901099C2D9DA0B40EBDA514E0 ====


[CUETools log; Date: 22.12.2013 10:09:32; Version: 2.1.2a]
[CTDB TOCID: iN9HFx90AGkoKsQbJmkAGYp2dhc-] found.
[ CTDBID ] Status
[4e997b3e] (115/116) Accurately ripped
[3e097169] (001/116) No match
[AccurateRip ID: 00288316-0226b4fe-ec0f6712] found.
Track [ CRC ] Status
01 [d5575cc1] (097/151) Accurately ripped
02 [2079e568] (097/153) Accurately ripped
03 [ba2d3b3e] (095/151) Accurately ripped
04 [865b45a8] (096/150) Accurately ripped
05 [efbe0298] (099/154) Accurately ripped
06 [c7af3ca4] (098/153) Accurately ripped
07 [f70166fe] (098/154) Accurately ripped
08 [1688ffb5] (098/152) Accurately ripped
09 [808ca5b5] (099/153) Accurately ripped
10 [95c67e9e] (097/151) Accurately ripped
11 [7fc782ca] (097/151) Accurately ripped
12 [3e2ed55c] (098/153) Accurately ripped
13 [8984d141] (098/151) Accurately ripped
14 [75d7f48d] (097/151) Accurately ripped
15 [a25cc5a0] (095/145) Accurately ripped
16 [7fb0402d] (095/150) Accurately ripped
17 [7b8a1744] (093/148) Accurately ripped
18 [cc8d85cd] (089/142) Accurately ripped
AccurateRip v2:
01 [12cb388c] (040/151) Accurately ripped
02 [2b4d39ca] (041/153) Accurately ripped
03 [7f67bf1a] (041/151) Accurately ripped
04 [13a6cf21] (040/150) Accurately ripped
05 [7762c836] (041/154) Accurately ripped
06 [d54375bc] (041/153) Accurately ripped
07 [043fae8b] (041/154) Accurately ripped
08 [be9886e2] (040/152) Accurately ripped
09 [40c08181] (040/153) Accurately ripped
10 [f594d338] (040/151) Accurately ripped
11 [844d725e] (040/151) Accurately ripped
12 [97f91422] (041/153) Accurately ripped
13 [ccb33e97] (039/151) Accurately ripped
14 [f6676c42] (040/151) Accurately ripped
15 [a8c9c032] (036/145) Accurately ripped
16 [e4a3549d] (040/150) Accurately ripped
17 [dc9c96a6] (040/148) Accurately ripped
18 [974830ef] (039/142) Accurately ripped
Offsetted by -22:
01 [ac478019] (011/151) Accurately ripped
02 [bc492dec] (012/153) Accurately ripped
03 [496d3bac] (012/151) Accurately ripped
04 [dfe97126] (011/150) Accurately ripped
05 [d42a5c92] (011/154) Accurately ripped
06 [eed36576] (011/153) Accurately ripped
07 [15eb5414] (012/154) Accurately ripped
08 [4c2d876d] (011/152) Accurately ripped
09 [804c4fc1] (011/153) Accurately ripped
10 [15608778] (011/151) Accurately ripped
11 [2a2b9626] (011/151) Accurately ripped
12 [77224bc8] (011/153) Accurately ripped
13 [1e0f4ef3] (011/151) Accurately ripped
14 [f6d36b79] (011/151) Accurately ripped
15 [af13e7e2] (011/145) Accurately ripped
16 [92d81951] (011/150) Accurately ripped
17 [48b3de1c] (012/148) Accurately ripped
18 [69ad756f] (011/142) Accurately ripped

Track Peak [ CRC32 ] [W/O NULL] [ LOG ]
– 98,8 [5593CCD9] [2CBF196F] CRC32
01 94,4 [549294A6] [32716A0B]
02 94,4 [FE211BBF] [BEE6020C]
03 86,2 [35C82CDD] [2A046BD4]
04 88,3 [336D4863] [3CFA92C1]
05 94,4 [984A743F] [9B0A7451]
06 94,4 [85984069] [F246DDB1]
07 94,4 [D17620BA] [286FCB2F]
08 94,4 [34C79FAD] [2B84415B]
09 94,4 [6D378A68] [2037FFBE]
10 94,4 [9EAF83D7] [5802E807]
11 94,4 [9191479E] [3816AC51]
12 89,1 [E52C5573] [2F412588]
13 89,1 [C2045886] [962C8B84]
14 89,1 [78A952AC] [4986B7C4]
15 94,4 [BBF1E293] [C6D28E2B]
16 93,5 [D168298E] [E98CE306]
17 98,8 [63BB7571] [2D6CE967]
18 94,4 [184B33BA] [42F5CCBD]


Tom Petty & The Heartbreakers - Greatest Hits (1993)

All thanks go to the original releaser

Tom Petty in my Blog

Download Tom Petty & The Heartbreakers - Greatest Hits (1993):