Subcategories

Tømrerclaus - Jeg Var Go I Går (2005)

Posted By: gribovar
Tømrerclaus - Jeg Var Go I Går (2005)

Tomrerclaus - Jeg Var Go I Gar (2005)
EAC Rip | FLAC (tracks+.cue+log) - 399 MB | MP3 CBR 320 kbps (LAME 3.93) - 132 MB | Covers (6 MB) included
Genre: Progressive/Psychedelic Rock | RAR 3% Rec. | Label: Karma Music (KMCD 21075)

A rare bird has relieved.. 10 songs that move. Here's a part of the explanation of why it's just called "Rock Music"… It's (or should be) because it's rocking something. This CD makes it!
Claus Clement Pedersen, called Tømrerclaus (born November 21, 1945 in Aarhus) is a danish guitarist, cellist, bassist, clarinettist, singer, hurdy-gurdy player, producer, sound engineer and online store manager.
Tracklist:
01. Jeg Var Så Konfus
02. 68
03. Mågen Siksakker
04. Jeg Var Go Igår
05. Skal Det Blive Ved?
06. 2 Venner
07. Dage Der Styrter Afsted
08. Fik Du Et Glimt?
09. Vi Vil Ha Sommer
10. Christianiasangen

Total time: 53:26

Exact Audio Copy V1.0 beta 6 from 9. April 2015

EAC extraction logfile from 12. June 2018, 21:40

Tømrerclaus / Jeg Var Go' i Går

Used drive : hp CDDVDW SN-208FB Adapter: 1 ID: 0

Read mode : Secure
Utilize accurate stream : Yes
Defeat audio cache : Yes
Make use of C2 pointers : No

Read offset correction : 6
Overread into Lead-In and Lead-Out : No
Fill up missing offset samples with silence : Yes
Delete leading and trailing silent blocks : No
Null samples used in CRC calculations : Yes
Used interface : Native Win32 interface for Win NT & 2000
Gap handling : Appended to previous track

Used output format : User Defined Encoder
Selected bitrate : 1024 kBit/s
Quality : High
Add ID3 tag : No
Command line compressor : C:\Program Files (x86)\Exact Audio Copy\Flac\flac.exe
Additional command line options : -8 -e -V -T "ARTIST=%artist%" -T "TITLE=%title%" -T "ALBUM=%albumtitle%" -T "DATE=%year%" -T "TRACKNUMBER=%tracknr%" -T "GENRE=%genre%" -T "PERFORMER=%albuminterpret%" -T "COMPOSER=%composer%" %haslyrics%–tag-from-file=LYRICS="%lyricsfile%"%haslyrics% -T "ALBUMARTIST=%albumartist%" -T "DISCNUMBER=%cdnumber%" -T "TOTALDISCS=%totalcds%" -T "TOTALTRACKS=%numtracks%" -T "COMMENT=%comment%" %source% -o %dest%


TOC of the extracted CD

Track | Start | Length | Start sector | End sector
––––––––––––––––––––––––––––-
1 | 0:00.00 | 4:28.01 | 0 | 20100
2 | 4:28.01 | 6:08.56 | 20101 | 47756
3 | 10:36.57 | 4:45.26 | 47757 | 69157
4 | 15:22.08 | 5:27.72 | 69158 | 93754
5 | 20:50.05 | 4:52.38 | 93755 | 115692
6 | 25:42.43 | 4:18.22 | 115693 | 135064
7 | 30:00.65 | 6:32.43 | 135065 | 164507
8 | 36:33.33 | 7:01.26 | 164508 | 196108
9 | 43:34.59 | 4:50.47 | 196109 | 217905
10 | 48:25.31 | 5:00.38 | 217906 | 240443


Track 1

Filename C:\Users\Windows\Desktop\TømrerClaus - Jeg Var Go I Går\01 - Jeg Var Så Konfus.wav

Pre-gap length 0:00:02.00

Peak level 97.0 %
Extraction speed 2.2 X
Track quality 100.0 %
Test CRC ED1F370F
Copy CRC ED1F370F
Accurately ripped (confidence 3) [ECC2AD9C] (AR v1)
Copy OK

Track 2

Filename C:\Users\Windows\Desktop\TømrerClaus - Jeg Var Go I Går\02 - 68.wav

Pre-gap length 0:00:02.00

Peak level 99.9 %
Extraction speed 2.5 X
Track quality 100.0 %
Test CRC 836241F9
Copy CRC 836241F9
Accurately ripped (confidence 3) [35700303] (AR v1)
Copy OK

Track 3

Filename C:\Users\Windows\Desktop\TømrerClaus - Jeg Var Go I Går\03 - Mågen Siksakker.wav

Pre-gap length 0:00:02.00

Peak level 99.9 %
Extraction speed 2.7 X
Track quality 100.0 %
Test CRC B306FE74
Copy CRC B306FE74
Accurately ripped (confidence 3) [1BFF048D] (AR v1)
Copy OK

Track 4

Filename C:\Users\Windows\Desktop\TømrerClaus - Jeg Var Go I Går\04 - Jeg Var Go' i Går.wav

Pre-gap length 0:00:02.00

Peak level 100.0 %
Extraction speed 3.0 X
Track quality 100.0 %
Test CRC 2C65E58A
Copy CRC 2C65E58A
Accurately ripped (confidence 3) [2734B711] (AR v1)
Copy OK

Track 5

Filename C:\Users\Windows\Desktop\TømrerClaus - Jeg Var Go I Går\05 - Skal Det Blive Ved.wav

Pre-gap length 0:00:02.00

Peak level 99.9 %
Extraction speed 2.6 X
Track quality 99.9 %
Test CRC B7C7A2CD
Copy CRC B7C7A2CD
Accurately ripped (confidence 3) [504ED2D1] (AR v1)
Copy OK

Track 6

Filename C:\Users\Windows\Desktop\TømrerClaus - Jeg Var Go I Går\06 - 2 Venner.wav

Pre-gap length 0:00:02.00

Peak level 99.9 %
Extraction speed 2.6 X
Track quality 99.9 %
Test CRC 82EA9647
Copy CRC 82EA9647
Accurately ripped (confidence 3) [B03EE282] (AR v1)
Copy OK

Track 7

Filename C:\Users\Windows\Desktop\TømrerClaus - Jeg Var Go I Går\07 - Dage Der Styrter Afsted.wav

Pre-gap length 0:00:02.00

Peak level 99.9 %
Extraction speed 3.6 X
Track quality 100.0 %
Test CRC 9887C0CC
Copy CRC 9887C0CC
Accurately ripped (confidence 3) [A33B60FF] (AR v1)
Copy OK

Track 8

Filename C:\Users\Windows\Desktop\TømrerClaus - Jeg Var Go I Går\08 - Fik Du Et Glimt.wav

Pre-gap length 0:00:01.98

Peak level 97.0 %
Extraction speed 3.9 X
Track quality 100.0 %
Test CRC 1BA24CBE
Copy CRC 1BA24CBE
Accurately ripped (confidence 3) [A1857D53] (AR v1)
Copy OK

Track 9

Filename C:\Users\Windows\Desktop\TømrerClaus - Jeg Var Go I Går\09 - Vi Vil Ha Sommer.wav

Pre-gap length 0:00:02.00

Peak level 97.0 %
Extraction speed 3.9 X
Track quality 100.0 %
Test CRC 0CB517A0
Copy CRC 0CB517A0
Accurately ripped (confidence 3) [9774CF64] (AR v1)
Copy OK

Track 10

Filename C:\Users\Windows\Desktop\TømrerClaus - Jeg Var Go I Går\10 - Christiania Sangen.wav

Pre-gap length 0:00:02.00

Peak level 99.9 %
Extraction speed 4.0 X
Track quality 100.0 %
Test CRC BF55406E
Copy CRC BF55406E
Accurately ripped (confidence 3) [AB1F8704] (AR v1)
Copy OK


All tracks accurately ripped

No errors occurred

End of status report

–– CUETools DB Plugin V2.1.6

[CTDB TOCID: hinyY73n6cNEAXouBHU1doMl4ds-] found
Submit result: hinyY73n6cNEAXouBHU1doMl4ds- has been confirmed
Track | CTDB Status
1 | (1/1) Accurately ripped
2 | (1/1) Accurately ripped
3 | (1/1) Accurately ripped
4 | (1/1) Accurately ripped
5 | (1/1) Accurately ripped
6 | (1/1) Accurately ripped
7 | (1/1) Accurately ripped
8 | (1/1) Accurately ripped
9 | (1/1) Accurately ripped
10 | (1/1) Accurately ripped


==== Log checksum 2B7D3F7086EC82CD7905236FABE9ADC69CDAB0E706886B4BC23538D9A8E210C8 ====

[CUETools log; Date: 18.09.2019 18:02:38; Version: 2.1.4]
[CTDB TOCID: hinyY73n6cNEAXouBHU1doMl4ds-] found.
Track | CTDB Status
1 | (4/4) Accurately ripped
2 | (4/4) Accurately ripped
3 | (4/4) Accurately ripped
4 | (4/4) Accurately ripped
5 | (4/4) Accurately ripped
6 | (4/4) Accurately ripped
7 | (4/4) Accurately ripped
8 | (4/4) Accurately ripped
9 | (4/4) Accurately ripped
10 | (4/4) Accurately ripped
[AccurateRip ID: 0013d810-009fd00b-800c850a] found.
Track [ CRC | V2 ] Status
01 [ecc2ad9c|dfb6997f] (3+0/3) Accurately ripped
02 [35700303|5efdfd40] (3+0/3) Accurately ripped
03 [1bff048d|4fbae9fd] (3+0/3) Accurately ripped
04 [2734b711|cd186b91] (3+0/3) Accurately ripped
05 [504ed2d1|ef288e68] (3+0/3) Accurately ripped
06 [b03ee282|66a170c2] (3+0/3) Accurately ripped
07 [a33b60ff|efc2915a] (3+0/3) Accurately ripped
08 [a1857d53|b2e119f7] (3+0/3) Accurately ripped
09 [9774cf64|42519cdb] (3+0/3) Accurately ripped
10 [ab1f8704|bc181721] (3+0/3) Accurately ripped

Track Peak [ CRC32 ] [W/O NULL] [ LOG ]
– 100,0 [F29A073C] [98A6413C]
01 97,0 [ED1F370F] [FF696E1F] CRC32
02 99,9 [836241F9] [D351FE46] CRC32
03 99,9 [B306FE74] [38AC5735] CRC32
04 100,0 [2C65E58A] [F2DE317B] CRC32
05 99,9 [B7C7A2CD] [A5FFFAA6] CRC32
06 99,9 [82EA9647] [563D2A73] CRC32
07 99,9 [9887C0CC] [ED834108] CRC32
08 97,0 [1BA24CBE] [E705F74A] CRC32
09 97,0 [0CB517A0] [F4CF1296] CRC32
10 99,9 [BF55406E] [EA939F9B] CRC32

Thanks to Nelwizard

See also:
Musikpatruljen - Musikpatruljen (1972) [Reissue 2006]