Subcategories

Tonbruket - Masters of Fog (2019)

Posted By: gribovar
Tonbruket - Masters of Fog (2019)

Tonbruket - Masters of Fog (2019)
EAC Rip | FLAC (tracks+.cue+log) - 267 MB | Covers - 48 MB
Genre: Contemporary Jazz, Fusion | RAR 3% Rec. | Label: ACT Music (ACT 9892-2)

"Masters of Fog" is a lively and self-confident departure into a world of new adventures in sound. Berglund, Lindström, Hederos and Werliin are not only completely cognisant of their own capacities, they also know what they want.
Perseverance yields results - and sometimes produces things which just seem to get better and better… like Tonbruket (it means 'sound factory'). The four Swedes have been making music together for 10 years now, and in their sixth album "Masters of Fog", the band has done the musical equivalent of throwing a smoke grenade. Musical genres suddenly become indistinct and blurry. Tonbruket give themselves up to the imagination, to the senses, and to the intoxication of the moment. It really doesn't fit into any category - except that it is deeply enjoyable.
Tracklist:
01. Masters of Fog
02. AM/FM
03. The Enders
04. Enter The Amazonas
05. Tonabillity
06. Waiting For Damocles Sword
07. Wheel No. 5
08. The Barn
09. Chain Rule Formula
10. A Tale Of Fall
11. The Pavlova Murders

Total time: 45:27

Exact Audio Copy V1.0 beta 4 from 7. December 2014

EAC extraction logfile from 22. June 2020, 15:32

Tonbruket / Masters of Fog

Used drive : ATAPI iHAS124 F Adapter: 1 ID: 0

Read mode : Secure
Utilize accurate stream : Yes
Defeat audio cache : Yes
Make use of C2 pointers : No

Read offset correction : 6
Overread into Lead-In and Lead-Out : No
Fill up missing offset samples with silence : Yes
Delete leading and trailing silent blocks : No
Null samples used in CRC calculations : Yes
Used interface : Native Win32 interface for Win NT & 2000
Gap handling : Appended to previous track

Used output format : User Defined Encoder
Selected bitrate : 896 kBit/s
Quality : High
Add ID3 tag : No
Command line compressor : C:\Program Files\flac-1.3.2-win\win64\flac.exe
Additional command line options : -8 -V -T "ARTIST=%artist%" -T "TITLE=%title%" -T "ALBUM=%albumtitle%" -T "DATE=%year%" -T "TRACKNUMBER=%tracknr%" -T "GENRE=%genre%" -T "COMMENT=ripped by vp_sunset" %source% -o %dest%


TOC of the extracted CD

Track | Start | Length | Start sector | End sector
––––––––––––––––––––––––––––-
1 | 0:00.00 | 7:17.37 | 0 | 32811
2 | 7:17.37 | 4:37.66 | 32812 | 53652
3 | 11:55.28 | 4:01.18 | 53653 | 71745
4 | 15:56.46 | 1:36.29 | 71746 | 78974
5 | 17:33.00 | 2:28.56 | 78975 | 90130
6 | 20:01.56 | 2:07.47 | 90131 | 99702
7 | 22:09.28 | 4:04.28 | 99703 | 118030
8 | 26:13.56 | 7:26.47 | 118031 | 151527
9 | 33:40.28 | 2:46.18 | 151528 | 163995
10 | 36:26.46 | 4:05.10 | 163996 | 182380
11 | 40:31.56 | 4:55.29 | 182381 | 204534


Track 1

Filename C:\_EAC\01. Masters of Fog.wav

Pre-gap length 0:00:02.00

Peak level 98.8 %
Extraction speed 5.8 X
Track quality 100.0 %
Test CRC 08653078
Copy CRC 08653078
Accurately ripped (confidence 5) [0B7E9C19] (AR v2)
Copy OK

Track 2

Filename C:\_EAC\02. AM-FM.wav

Peak level 97.7 %
Extraction speed 5.5 X
Track quality 99.9 %
Test CRC C7B8DB82
Copy CRC C7B8DB82
Accurately ripped (confidence 5) [9D7C74E9] (AR v2)
Copy OK

Track 3

Filename C:\_EAC\03. The Enders.wav

Peak level 99.9 %
Extraction speed 6.8 X
Track quality 100.0 %
Test CRC 7681DC8C
Copy CRC 7681DC8C
Accurately ripped (confidence 5) [3B97EEBC] (AR v2)
Copy OK

Track 4

Filename C:\_EAC\04. Enter The Amazonas.wav

Peak level 96.6 %
Extraction speed 5.9 X
Track quality 100.0 %
Test CRC 45851B8F
Copy CRC 45851B8F
Accurately ripped (confidence 5) [80156918] (AR v2)
Copy OK

Track 5

Filename C:\_EAC\05. Tonabillity.wav

Peak level 97.7 %
Extraction speed 5.3 X
Track quality 99.9 %
Test CRC 549CFC7D
Copy CRC 549CFC7D
Accurately ripped (confidence 5) [CB077BA7] (AR v2)
Copy OK

Track 6

Filename C:\_EAC\06. Waiting For Damocles Sword.wav

Peak level 97.7 %
Extraction speed 6.7 X
Track quality 100.0 %
Test CRC 88F71332
Copy CRC 88F71332
Accurately ripped (confidence 5) [43CAECE8] (AR v2)
Copy OK

Track 7

Filename C:\_EAC\07. Wheel No.wav

Peak level 98.8 %
Extraction speed 6.7 X
Track quality 99.9 %
Test CRC AED5A419
Copy CRC AED5A419
Accurately ripped (confidence 5) [7CFF5C58] (AR v2)
Copy OK

Track 8

Filename C:\_EAC\08. The Barn.wav

Peak level 97.7 %
Extraction speed 8.9 X
Track quality 100.0 %
Test CRC 2A1A26BD
Copy CRC 2A1A26BD
Accurately ripped (confidence 5) [B77906D5] (AR v2)
Copy OK

Track 9

Filename C:\_EAC\09. Chain Rule Formula.wav

Peak level 97.7 %
Extraction speed 8.4 X
Track quality 100.0 %
Test CRC 03CC32C6
Copy CRC 03CC32C6
Accurately ripped (confidence 5) [730FE400] (AR v2)
Copy OK

Track 10

Filename C:\_EAC\10. A Tale Of Fall.wav

Peak level 97.7 %
Extraction speed 9.1 X
Track quality 100.0 %
Test CRC 9E31AE37
Copy CRC 9E31AE37
Accurately ripped (confidence 5) [8FB4204D] (AR v2)
Copy OK

Track 11

Filename C:\_EAC\11. The Pavlova Murders.wav

Peak level 97.7 %
Extraction speed 9.7 X
Track quality 100.0 %
Test CRC 67973CAD
Copy CRC 67973CAD
Accurately ripped (confidence 5) [AF2D274C] (AR v2)
Copy OK


All tracks accurately ripped

No errors occurred

End of status report

–– CUETools DB Plugin V2.1.4

[CTDB TOCID: OiM91QBrIM6bZQeE8wR0MdxoTwA-] found
Submit result: OiM91QBrIM6bZQeE8wR0MdxoTwA- has been confirmed
Track | CTDB Status
1 | (33/33) Accurately ripped
2 | (33/33) Accurately ripped
3 | (33/33) Accurately ripped
4 | (33/33) Accurately ripped
5 | (33/33) Accurately ripped
6 | (33/33) Accurately ripped
7 | (33/33) Accurately ripped
8 | (33/33) Accurately ripped
9 | (33/33) Accurately ripped
10 | (33/33) Accurately ripped
11 | (33/33) Accurately ripped


==== Log checksum 8C0BA77D3D08352A512344D94EFDE77CE0EBBC5EF6F4DA71FAFC00FB243994B3 ====

[CUETools log; Date: 30.06.2020 16:16:42; Version: 2.1.4]
[CTDB TOCID: OiM91QBrIM6bZQeE8wR0MdxoTwA-] found.
Track | CTDB Status
1 | (35/35) Accurately ripped
2 | (35/35) Accurately ripped
3 | (35/35) Accurately ripped
4 | (35/35) Accurately ripped
5 | (35/35) Accurately ripped
6 | (35/35) Accurately ripped
7 | (35/35) Accurately ripped
8 | (35/35) Accurately ripped
9 | (35/35) Accurately ripped
10 | (35/35) Accurately ripped
11 | (35/35) Accurately ripped
[AccurateRip ID: 00130903-00a11149-870aa70b] found.
Track [ CRC | V2 ] Status
01 [f31a624f|0b7e9c19] (0+5/5) Accurately ripped
02 [354997c2|9d7c74e9] (0+5/5) Accurately ripped
03 [2e279105|3b97eebc] (0+5/5) Accurately ripped
04 [a1411b13|80156918] (0+5/5) Accurately ripped
05 [c5f5a07a|cb077ba7] (0+5/5) Accurately ripped
06 [4573a892|43caece8] (0+5/5) Accurately ripped
07 [bd5f8dac|7cff5c58] (0+5/5) Accurately ripped
08 [6af744bf|b77906d5] (0+5/5) Accurately ripped
09 [36ef0e0f|730fe400] (0+5/5) Accurately ripped
10 [eb9ca3bd|8fb4204d] (0+5/5) Accurately ripped
11 [63a159f3|af2d274c] (0+5/5) Accurately ripped

Track Peak [ CRC32 ] [W/O NULL] [ LOG ]
– 99,9 [433A10CC] [68AD025F]
01 98,8 [08653078] [925B5B5E] CRC32
02 97,7 [C7B8DB82] [1B59DFF8] CRC32
03 99,9 [7681DC8C] [07190029] CRC32
04 96,6 [45851B8F] [BC506898] CRC32
05 97,7 [549CFC7D] [0C3BD035] CRC32
06 97,7 [88F71332] [7F4AF71D] CRC32
07 98,8 [AED5A419] [8F83E4DA] CRC32
08 97,7 [2A1A26BD] [C2A2AB2E] CRC32
09 97,7 [03CC32C6] [885EC774] CRC32
10 97,7 [9E31AE37] [A12B7A6D] CRC32
11 97,7 [67973CAD] [A6B365FF] CRC32

Thanks to vp_sunset