Subcategories

Toshiko - Mariano Quartet - Live At Birdland [Recorded 1960-1961] (1991)

Posted By: gribovar
Toshiko - Mariano Quartet - Live At Birdland [Recorded 1960-1961] (1991)

Toshiko Mariano Quartet - Live At Birdland [Recorded 1960-1961] (1991)
EAC Rip | APE (image+.cue+log) - 233 MB | MP3 CBR 320 kbps (LAME 3.93) - 138 MB | Covers (11 MB) included
Genre: Jazz | RAR 3% Rec. | Label: Fresh Sound (FSCD-1021)

Live at Birdand by the Toshiko - Mariano Quartet is a jazz album made from recordings taken at the Birdland Club in New York City on two separate occasions in 1960 and 1961. Toshiko Akiyoshi (piano), Charlie Mariano (alto saxophone), Eddie Marshall (drums), Gene Cherico (bass). It was released on CD in 1991 by the European Fresh Sound label.
Tracklist:
01. Deep River
02. Song of the Farm
03. Blues for Father
04. When You Meet Her
05. Elegy
06. When Johnny Comes Marching Home
07. Tempus Fugit
08. Blues for Father

Total time: 53:50

Exact Audio Copy V1.0 beta 1 from 15. November 2010

EAC extraction logfile from 16. April 2012, 22:13

AKIYOSHI-MARIANO QUARTET / Live at Birdland

Used drive : TSSTcorpDVD+-RW TS-L532B Adapter: 1 ID: 0

Read mode : Secure
Utilize accurate stream : Yes
Defeat audio cache : Yes
Make use of C2 pointers : No

Read offset correction : 704
Overread into Lead-In and Lead-Out : No
Fill up missing offset samples with silence : Yes
Delete leading and trailing silent blocks : No
Null samples used in CRC calculations : Yes
Used interface : Native Win32 interface for Win NT & 2000

Used output format : Internal WAV Routines
Sample format : 44.100 Hz; 16 Bit; Stereo


TOC of the extracted CD

Track | Start | Length | Start sector | End sector
––––––––––––––––––––––––––––-
1 | 0:00.33 | 4:43.40 | 33 | 21297
2 | 4:43.73 | 6:00.17 | 21298 | 48314
3 | 10:44.15 | 8:30.15 | 48315 | 86579
4 | 19:14.30 | 5:53.50 | 86580 | 113104
5 | 25:08.05 | 9:56.60 | 113105 | 157864
6 | 35:04.65 | 7:41.55 | 157865 | 192494
7 | 42:46.45 | 5:32.18 | 192495 | 217412
8 | 48:18.63 | 5:31.15 | 217413 | 242252


Range status and errors

Selected range

Filename C:\Documents and Settings\VB\My Documents\BARIN99\AKIYOSHI-MARIANO QUARTET - Live at Birdland\AKIYOSHI-MARIANO QUARTET - Live at Birdland.wav

Peak level 100.0 %
Extraction speed 0.2 X
Range quality 99.9 %
Copy CRC 8B8D4744
Copy OK

No errors occurred


AccurateRip summary

Track 1 not present in database
Track 2 not present in database
Track 3 not present in database
Track 4 not present in database
Track 5 not present in database
Track 6 not present in database
Track 7 not present in database
Track 8 not present in database

None of the tracks are present in the AccurateRip database

End of status report

[CUETools log; Date: 31.07.2019 2:49:00; Version: 2.1.4]
Pregap length 00:00:33.
[CTDB TOCID: DsQVc316uFZPBf8MeXV.4hafQgw-] found.
Track | CTDB Status
1 | (3/3) Accurately ripped
2 | (3/3) Accurately ripped
3 | (3/3) Accurately ripped
4 | (3/3) Accurately ripped
5 | (3/3) Accurately ripped
6 | (3/3) Accurately ripped
7 | (3/3) Accurately ripped
8 | (3/3) Accurately ripped
[AccurateRip ID: 0010783d-006f98f7-5e0c9e08] found.
Track [ CRC | V2 ] Status
01 [ee3bdb8e|357a69d2] (0+2/2) Accurately ripped
02 [986a3fcc|aef715c9] (0+2/2) Accurately ripped
03 [a373189a|395dc403] (0+2/2) Accurately ripped
04 [92527a03|32c75699] (0+2/2) Accurately ripped
05 [0c74d7b4|2e809516] (0+2/2) Accurately ripped
06 [9273d07e|c2fd7dc7] (0+2/2) Accurately ripped
07 [0eaa9de0|c53070ed] (0+2/2) Accurately ripped
08 [e5e2d4e1|cbb491c6] (0+2/2) Accurately ripped

Track Peak [ CRC32 ] [W/O NULL] [ LOG ]
– 100,0 [8B8D4744] [D4965046] CRC32
01 81,4 [93208D63] [AD7DCEF6]
02 84,4 [5A905B67] [53F390AA]
03 77,1 [F7348977] [1290A192]
04 62,1 [E76DF95E] [7FF9D567]
05 77,5 [412C34C0] [C5B26554]
06 93,0 [F54A2CD1] [A95B7902]
07 100,0 [10341649] [6CF6CA77]
08 100,0 [5B50E15E] [8E27298D]

Thanks to barin99

See also:
Toshiko Akiyoshi - Toshiko's Piano (1954) [Reissue 2013]
Toshiko Akiyoshi - The Many Si...(1957) [Japanese Edition 1999]
Charlie Mariano - Charlie Mariano Plays (1956) [Japanese Edition 2013]
Charlie Mariano & Chris Hinze - Blue Stone (1973) [Reissue 1995]
Charlie Mariano - Boston All Stars [Recorded 1951-53] (1990)