Subcategories

Trevor Pinnock / The English Concert - Bach: Complete Harpsichord Concertos (2002)

Posted By: murena
Trevor Pinnock / The English Concert - Bach: Complete Harpsichord Concertos (2002)

Trevor Pinnock / The English Concert - Bach: Complete Harpsichord Concertos (2002)
EAC Rip | FLAC (Image+.cue, log) | 03:19:19 min | Covers included | 1,16 Gb
Genre: Classical, Baroque / Label: DG Archiv

Pinnock’s performances of the Bach Harpsichord Concertos first appeared in 1981 and have dominated the catalog ever since. In the solo concertos he plays with real panache, his scholarship tempered with excellent musicianship." "The double, triple and quadruple concertos are digital, and the combination of period instruments and playing of determined vigour certainly makes a bold effect.

Tracklist:

CD1:
Concerto for Harpsichord No. 1 in D Minor, BWV 1052

I. Allegro 7:24
II. Adagio 6:14
III. Allegro 7:48

Concerto for Harpsichord No. 2 in E Major, BWV 1053
I. Allegro 7:33
II. Siciliano 5:13
III. Allegro 6:05

Concerto for Harpsichord No. 3 in D Major, BWV 1054
I. Allegro 7:39
II. Adagio e piano sempre 6:47
III. Allegro 2:35

Exact Audio Copy V0.99 prebeta 4 from 23. January 2008

EAC extraction logfile from 7. April 2009, 20:39

Bach / The Harpsichord Concertos I (Pinnock)

Used drive : ASUS DRW-1814BLT Adapter: 3 ID: 0

Read mode : Secure
Utilize accurate stream : Yes
Defeat audio cache : No
Make use of C2 pointers : Yes

Read offset correction : 6
Overread into Lead-In and Lead-Out : No
Fill up missing offset samples with silence : Yes
Delete leading and trailing silent blocks : No
Null samples used in CRC calculations : No
Used interface : Native Win32 interface for Win NT & 2000

Used output format : User Defined Encoder
Selected bitrate : 128 kBit/s
Quality : High
Add ID3 tag : No
Command line compressor : C:\Program Files\Exact Audio Copy\Flac\flac.exe
Additional command line options : -5 -V -T "ARTIST=%a" -T "TITLE=%t" -T "ALBUM=%g" -T "DATE=%y" -T "TRACKNUMBER=%n" -T "GENRE=%m" -T "COMMENT=EAC FLAC -8" %s


TOC of the extracted CD

Track | Start | Length | Start sector | End sector
––––––––––––––––––––––––––––-
1 | 0:00.00 | 7:25.58 | 0 | 33432
2 | 7:25.58 | 6:17.67 | 33433 | 61774
3 | 13:43.50 | 7:56.25 | 61775 | 97499
4 | 21:40.00 | 7:39.05 | 97500 | 131929
5 | 29:19.05 | 5:16.40 | 131930 | 155669
6 | 34:35.45 | 6:09.30 | 155670 | 183374
7 | 40:45.00 | 7:41.25 | 183375 | 217974
8 | 48:26.25 | 6:48.50 | 217975 | 248624
9 | 55:15.00 | 2:35.13 | 248625 | 260262


Range status and errors

Selected range

Filename F:\downloads\Bach_harpisichord\cd1\Bach - The Harpsichord Concertos I (Pinnock).wav

Peak level 98.7 %
Range quality 100.0 %
Test CRC 6076A0DD
Copy CRC 6076A0DD
Copy OK

No errors occurred


AccurateRip summary

Track 1 accurately ripped (confidence 6) [39AA6955]
Track 2 accurately ripped (confidence 6) [746E394F]
Track 3 accurately ripped (confidence 6) [95611AD9]
Track 4 accurately ripped (confidence 6) [86331FE9]
Track 5 accurately ripped (confidence 6) [637F7D47]
Track 6 accurately ripped (confidence 6) [7F725C59]
Track 7 accurately ripped (confidence 5) [0DE3A010]
Track 8 accurately ripped (confidence 5) [27DBB3C8]
Track 9 accurately ripped (confidence 5) [2412AC47]

All tracks accurately ripped

End of status report


CD2:
Concerto for Harpsichord No. 4 in A Major, BWV 1055
I. Allegro 4:15
II. Larghetto 5:42
III. Allegro ma non tanto 3:34

Concerto for Harpsichord No. 5 in F Minor, BWV 1056
I. Allegro moderato 3:08
II. Largo (Arioso) 2:49
III. Presto 3:35

Concerto for Harpsichord No. 6 in F Major, BWV 1057
I. Allegro 7:00
II. Andante 4:20
III. Allegro assai 5:11

Concerto for Harpsichord No. 7 in G Minor, BWV 1058
I. Allegro 3:42
II. Andante 6:20
III. Allegro assai 3:48

Concerto for 2 Harpsichords in C Minor, BWV 1060
I. Allegro 5:14
II. Adagio 5:24
III. Allegro 3:38

Exact Audio Copy V0.99 prebeta 4 from 23. January 2008

EAC extraction logfile from 7. April 2009, 20:45

Trevor Pinnock, The English Concert / Bach The Harpsicho

Used drive : ASUS DRW-1814BLT Adapter: 3 ID: 0

Read mode : Secure
Utilize accurate stream : Yes
Defeat audio cache : No
Make use of C2 pointers : Yes

Read offset correction : 6
Overread into Lead-In and Lead-Out : No
Fill up missing offset samples with silence : Yes
Delete leading and trailing silent blocks : No
Null samples used in CRC calculations : No
Used interface : Native Win32 interface for Win NT & 2000

Used output format : User Defined Encoder
Selected bitrate : 128 kBit/s
Quality : High
Add ID3 tag : No
Command line compressor : C:\Program Files\Exact Audio Copy\Flac\flac.exe
Additional command line options : -5 -V -T "ARTIST=%a" -T "TITLE=%t" -T "ALBUM=%g" -T "DATE=%y" -T "TRACKNUMBER=%n" -T "GENRE=%m" -T "COMMENT=EAC FLAC -8" %s


TOC of the extracted CD

Track | Start | Length | Start sector | End sector
––––––––––––––––––––––––––––-
1 | 0:00.00 | 4:15.00 | 0 | 19124
2 | 4:15.00 | 5:42.00 | 19125 | 44774
3 | 9:57.00 | 3:39.00 | 44775 | 61199
4 | 13:36.00 | 3:08.00 | 61200 | 75299
5 | 16:44.00 | 2:49.38 | 75300 | 88012
6 | 19:33.38 | 3:40.37 | 88013 | 104549
7 | 23:14.00 | 7:00.00 | 104550 | 136049
8 | 30:14.00 | 4:20.45 | 136050 | 155594
9 | 34:34.45 | 5:14.30 | 155595 | 179174
10 | 39:49.00 | 3:42.00 | 179175 | 195824
11 | 43:31.00 | 6:20.00 | 195825 | 224324
12 | 49:51.00 | 3:53.00 | 224325 | 241799
13 | 53:44.00 | 5:14.00 | 241800 | 265349
14 | 58:58.00 | 5:24.34 | 265350 | 289683
15 | 64:22.34 | 3:38.21 | 289684 | 306054


Range status and errors

Selected range

Filename F:\downloads\Bach_harpisichord\cd2\Trevor Pinnock, The English Concert - Bach The Harpsicho.wav

Peak level 89.8 %
Range quality 99.9 %
Copy CRC 40AF62D8
Copy OK

No errors occurred


AccurateRip summary

Track 1 accurately ripped (confidence 4) [9A739EB5]
Track 2 accurately ripped (confidence 4) [55B23E20]
Track 3 accurately ripped (confidence 4) [A708AFD0]
Track 4 accurately ripped (confidence 4) [4519F1AB]
Track 5 accurately ripped (confidence 4) [B5B21918]
Track 6 accurately ripped (confidence 4) [7C810BE0]
Track 7 accurately ripped (confidence 4) [9A8967C4]
Track 8 accurately ripped (confidence 4) [80595C07]
Track 9 accurately ripped (confidence 4) [31BA445E]
Track 10 accurately ripped (confidence 4) [42A4C5D5]
Track 11 accurately ripped (confidence 4) [3842DDBE]
Track 12 accurately ripped (confidence 4) [7A6B52B0]
Track 13 accurately ripped (confidence 4) [8E2BABCC]
Track 14 accurately ripped (confidence 4) [86F80763]
Track 15 accurately ripped (confidence 4) [C4A0EEC9]

All tracks accurately ripped

End of status report


CD3:

Concerto for 2 Harpsichords in C Minor, BWV 1061
I. Allegro 7:43
II. Adagio 4:59
III. Allegro 5:51

Concerto for 2 Harpsichords in C Minor, BWV 1062
I. Allegro 4:00
II. Andante 5:56
III. Allegro assai 4:37

Concerto for 3 Harpsichords No. 1 in D Minor, BWV 1063
I. Allegro 5:09
II. Alla Siciliana 3:46
III. Allegro 4:55

Concerto for 3 Harpsichords No. 2 in C Major, BWV 1064
I. Allegro 6:20
II. Adagio 5:28
III. Allegro assai 4:39

Concerto for 4 Harpsichords in A Minor, BWV 1065
I. Allegro 4:05
II. Largo 2:08
III. Allegro 3:24

Exact Audio Copy V0.99 prebeta 4 from 23. January 2008

EAC extraction logfile from 7. April 2009, 20:51

Bach / The English Concert - Trever Pinnock (CD3)

Used drive : ASUS DRW-1814BLT Adapter: 3 ID: 0

Read mode : Secure
Utilize accurate stream : Yes
Defeat audio cache : No
Make use of C2 pointers : Yes

Read offset correction : 6
Overread into Lead-In and Lead-Out : No
Fill up missing offset samples with silence : Yes
Delete leading and trailing silent blocks : No
Null samples used in CRC calculations : No
Used interface : Native Win32 interface for Win NT & 2000

Used output format : User Defined Encoder
Selected bitrate : 128 kBit/s
Quality : High
Add ID3 tag : No
Command line compressor : C:\Program Files\Exact Audio Copy\Flac\flac.exe
Additional command line options : -5 -V -T "ARTIST=%a" -T "TITLE=%t" -T "ALBUM=%g" -T "DATE=%y" -T "TRACKNUMBER=%n" -T "GENRE=%m" -T "COMMENT=EAC FLAC -8" %s


TOC of the extracted CD

Track | Start | Length | Start sector | End sector
––––––––––––––––––––––––––––-
1 | 0:00.32 | 7:43.00 | 32 | 34756
2 | 7:43.32 | 5:00.00 | 34757 | 57256
3 | 12:43.32 | 6:01.00 | 57257 | 84331
4 | 18:44.32 | 4:00.00 | 84332 | 102331
5 | 22:44.32 | 5:56.00 | 102332 | 129031
6 | 28:40.32 | 4:46.00 | 129032 | 150481
7 | 33:26.32 | 5:09.00 | 150482 | 173656
8 | 38:35.32 | 3:46.25 | 173657 | 190631
9 | 42:21.57 | 5:02.50 | 190632 | 213331
10 | 47:24.32 | 6:20.00 | 213332 | 241831
11 | 53:44.32 | 5:28.00 | 241832 | 266431
12 | 59:12.32 | 4:48.00 | 266432 | 288031
13 | 64:00.32 | 4:05.00 | 288032 | 306406
14 | 68:05.32 | 2:08.00 | 306407 | 316006
15 | 70:13.32 | 3:24.00 | 316007 | 331306


Range status and errors

Selected range

Filename F:\downloads\Bach_harpisichord\cd3\Bach - The English Concert - Trever Pinnock (CD3).wav

Peak level 99.9 %
Range quality 100.0 %
Copy CRC A0586914
Copy OK

No errors occurred


AccurateRip summary

Track 1 accurately ripped (confidence 2) [80B837DB]
Track 2 accurately ripped (confidence 2) [405EF723]
Track 3 accurately ripped (confidence 2) [3D56346B]
Track 4 accurately ripped (confidence 2) [CE02C222]
Track 5 accurately ripped (confidence 2) [47FBA395]
Track 6 accurately ripped (confidence 2) [21E32763]
Track 7 accurately ripped (confidence 2) [2B75A448]
Track 8 accurately ripped (confidence 2) [8684FFF9]
Track 9 accurately ripped (confidence 2) [FF46AF57]
Track 10 accurately ripped (confidence 2) [9149F9AB]
Track 11 accurately ripped (confidence 2) [51076E3D]
Track 12 accurately ripped (confidence 2) [84AB3A4D]
Track 13 accurately ripped (confidence 2) [288F3ED0]
Track 14 accurately ripped (confidence 2) [2B895BBB]
Track 15 accurately ripped (confidence 2) [C27D5FF0]

All tracks accurately ripped

End of status report


Trevor Pinnock / The English Concert - Bach: Complete Harpsichord Concertos (2002)


Thanks to original ripper.