Subcategories

VA - Twist And Shout: 60 Songs That Influenced The Beatles (2017)

Posted By: v3122
VA - Twist And Shout: 60 Songs That Influenced The Beatles (2017)

VA - Twist And Shout: 60 Songs That Influenced The Beatles (2017)
EAC | Flac(Image) + Cue + Log & MP3 CBR 320Kbps
3CD | Big3, BT3145 | ~ 648 or 356 Mb | Scans(jpg) -> 96 Mb
Doo Wop, Rock & Roll, Rockabilly, Rhythm & Blues, Ballad, Novelty

A great collection of songs that stays true to the title of the CD. Generous helpings on great rock and roll, don't have to be a Beatles fan to appreciate all the great material here.

by Bruce G. Hamlin, amazon
VA - Twist And Shout: 60 Songs That Influenced The Beatles (2017):

VA - Twist And Shout: 60 Songs That Influenced The Beatles (2017)

Tracklist CD1:

01. That's All Right, Mama (Elvis Presley) 2:00
02. I Got A Woman (Ray Charles) 2:51
03. Shake, Rattle And Roll (Bill Haley And His Comets) 2:31
04. Sure To Fall (Carl Perkins) 2:34
05. Roll Over Beethoven (Chuck Berry) 2:25
06. Lonesome Tears In My Eyes (Johnny Burnette & The Rock And Roll Trio) 2:03
07. I Forgot To Remember To Forget (Elvis Presley) 2:30
08. Hallelujah I Love Her So (Ray Charles) 2:37
09. Everybody's Trying To Be My Baby (Carl Perkins) 2:14
10. Long Tall Sally (Little Richard) 2:08
11. Be-Bop-A-Lula (Gene Vincent) 2:36
12. Clarabella (The Jodimars) 2:01
13. Too Much Monkey Business (Chuck Berry) 2:57
14. Words Of Love (Buddy Holly) 1:56
15. Young Blood (The Coasters) 2:22
16. Slow Down (Larry Williams) 2:45
17. Lend Me Your Comb (Carl Perkins) 1:59
18. To Know Him Is To Love Him (The Teddy Bears) 2:22
19. Hey-Hey-Hey-Hey (Goin' Back To Birmingham) (Little Richard) 2:09
20. Ain't She Sweet? (Gene Vincent) 2:29

Exact Audio Copy V1.3 from 2. September 2016

EAC extraction logfile from 16. March 2018, 14:53

Various Artists / Twist And Shout (Disc 1) (BT3145)

Used drive : PLEXTOR DVDR PX-891SA Adapter: 1 ID: 0

Read mode : Secure
Utilize accurate stream : Yes
Defeat audio cache : Yes
Make use of C2 pointers : No

Read offset correction : 6
Overread into Lead-In and Lead-Out : No
Fill up missing offset samples with silence : Yes
Delete leading and trailing silent blocks : No
Null samples used in CRC calculations : Yes
Used interface : Native Win32 interface for Win NT & 2000

Used output format : User Defined Encoder
Selected bitrate : 768 kBit/s
Quality : High
Add ID3 tag : No
Command line compressor : C:\Program Files (x86)\Exact Audio Copy\Flac\flac.exe
Additional command line options : -V -8 -T "Genre=%genre%" -T "Artist=%artist%" -T "Title=%title%" -T "Album=%albumtitle%" -T "Date=%year%" -T "Tracknumber=%tracknr%" -T "Comment=%comment%" %source%


TOC of the extracted CD

Track | Start | Length | Start sector | End sector
––––––––––––––––––––––––––––-
1 | 0:00.00 | 1:59.72 | 0 | 8996
2 | 1:59.72 | 2:50.43 | 8997 | 21789
3 | 4:50.40 | 2:30.73 | 21790 | 33112
4 | 7:21.38 | 2:33.48 | 33113 | 44635
5 | 9:55.11 | 2:25.28 | 44636 | 55538
6 | 12:20.39 | 2:03.13 | 55539 | 64776
7 | 14:23.52 | 2:30.04 | 64777 | 76030
8 | 16:53.56 | 2:36.49 | 76031 | 87779
9 | 19:30.30 | 2:14.32 | 87780 | 97861
10 | 21:44.62 | 2:08.08 | 97862 | 107469
11 | 23:52.70 | 2:35.58 | 107470 | 119152
12 | 26:28.53 | 2:01.08 | 119153 | 128235
13 | 28:29.61 | 2:56.70 | 128236 | 141505
14 | 31:26.56 | 1:55.68 | 141506 | 150198
15 | 33:22.49 | 2:21.39 | 150199 | 160812
16 | 35:44.13 | 2:45.06 | 160813 | 173193
17 | 38:29.19 | 1:58.70 | 173194 | 182113
18 | 40:28.14 | 2:21.54 | 182114 | 192742
19 | 42:49.68 | 2:09.24 | 192743 | 202441
20 | 44:59.17 | 2:29.15 | 202442 | 213631


Range status and errors

Selected range

Filename H:\dafnaplus\VA - Twist And Shout\Disc 1\Various Artists - Twist And Shout (Disc 1) (BT3145).wav

Peak level 100.0 %
Extraction speed 1.8 X
Range quality 99.8 %
Test CRC BB62CBB7
Copy CRC BB62CBB7
Copy OK

No errors occurred


AccurateRip summary

Track 1 accurately ripped (confidence 3) [C2547ECC] (AR v2)
Track 2 accurately ripped (confidence 3) [BA981A25] (AR v2)
Track 3 accurately ripped (confidence 3) [F9FA0E62] (AR v2)
Track 4 accurately ripped (confidence 3) [6FDD0A38] (AR v2)
Track 5 accurately ripped (confidence 3) [A8C7B4F8] (AR v2)
Track 6 accurately ripped (confidence 3) [7AEF87E9] (AR v2)
Track 7 accurately ripped (confidence 3) [4EAB3DB4] (AR v2)
Track 8 accurately ripped (confidence 3) [CD69C828] (AR v2)
Track 9 accurately ripped (confidence 3) [A5DBAF03] (AR v2)
Track 10 accurately ripped (confidence 3) [858349AC] (AR v2)
Track 11 accurately ripped (confidence 3) [485C8CF5] (AR v2)
Track 12 accurately ripped (confidence 3) [53B6870A] (AR v2)
Track 13 accurately ripped (confidence 3) [13FD5DA1] (AR v2)
Track 14 accurately ripped (confidence 3) [93FCCBCC] (AR v2)
Track 15 accurately ripped (confidence 3) [5AF87065] (AR v2)
Track 16 accurately ripped (confidence 3) [12054B87] (AR v2)
Track 17 accurately ripped (confidence 3) [00074953] (AR v2)
Track 18 accurately ripped (confidence 3) [E075CE51] (AR v2)
Track 19 accurately ripped (confidence 3) [7F871B77] (AR v2)
Track 20 accurately ripped (confidence 3) [E9165742] (AR v2)

All tracks accurately ripped

End of status report

–– CUETools DB Plugin V2.1.6

[CTDB TOCID: fXcPzGFMDHLAirKL9La75iRBPq8-] found
Submit result: fXcPzGFMDHLAirKL9La75iRBPq8- has been confirmed
Track | CTDB Status
1 | (3/3) Accurately ripped
2 | (3/3) Accurately ripped
3 | (3/3) Accurately ripped
4 | (3/3) Accurately ripped
5 | (3/3) Accurately ripped
6 | (3/3) Accurately ripped
7 | (3/3) Accurately ripped
8 | (3/3) Accurately ripped
9 | (3/3) Accurately ripped
10 | (3/3) Accurately ripped
11 | (3/3) Accurately ripped
12 | (3/3) Accurately ripped
13 | (3/3) Accurately ripped
14 | (3/3) Accurately ripped
15 | (3/3) Accurately ripped
16 | (3/3) Accurately ripped
17 | (3/3) Accurately ripped
18 | (3/3) Accurately ripped
19 | (3/3) Accurately ripped
20 | (3/3) Accurately ripped


==== Log checksum 8B8921650540574C30DF0AD13CF16C69E8B803DE50E9C8AA407B64539770AE3C ====


VA - Twist And Shout: 60 Songs That Influenced The Beatles (2017)

Tracklist CD2:

01. Lucille (Little Richard) 2:29
02. Honey Don't (Carl Perkins) 2:51
03. I'm Gonna Sit Right Down And Cry (Over You) (Elvis Presley) 2:04
04. You Can't Catch Me (Chuck Berry) 2:44
05. Money (That's What I Want) (Barrett Strong) 2:36
06. That'll Be The Day (Buddy Holly & The Crickets) 2:16
07. Bad Penny Blues (Humphrey Lyttelton And His Band) 2:42
08. The Sheik Of Araby (Fats Domino) 1:55
09. Rock And Roll Music (Chuck Berry) 2:33
10. Matchbox (Carl Perkins) 2:10
11. Dizzy Miss Lizzy (Larry Williams) 2:13
12. Nothin' Shakin' (But The Leaves On The Trees) (Eddie Fontaine) 2:55
13. Mailman, Bring Me No More Blues (Buddy Holly) 2:14
14. Searchin' (The Coasters) 2:41
15. Take Good Care Of My Baby (Bobby Vee) 2:39
16. Bad Boy (Larry Williams) 2:20
17. Kansas City (Wilbert Harrison) 2:25
18. So How Come (No One Loves Me) (The Everly Brothers) 2:18
19. Three Cool Cats (The Coasters) 2:12
20. The Honeymoon Song (Marino Marini & His Quartet) 2:20

Exact Audio Copy V1.3 from 2. September 2016

EAC extraction logfile from 16. March 2018, 19:22

Various Artists / Twist And Shout (Disc 2) (BT3145)

Used drive : PLEXTOR DVDR PX-891SA Adapter: 1 ID: 0

Read mode : Secure
Utilize accurate stream : Yes
Defeat audio cache : Yes
Make use of C2 pointers : No

Read offset correction : 6
Overread into Lead-In and Lead-Out : No
Fill up missing offset samples with silence : Yes
Delete leading and trailing silent blocks : No
Null samples used in CRC calculations : Yes
Used interface : Native Win32 interface for Win NT & 2000

Used output format : User Defined Encoder
Selected bitrate : 768 kBit/s
Quality : High
Add ID3 tag : No
Command line compressor : C:\Program Files (x86)\Exact Audio Copy\Flac\flac.exe
Additional command line options : -V -8 -T "Genre=%genre%" -T "Artist=%artist%" -T "Title=%title%" -T "Album=%albumtitle%" -T "Date=%year%" -T "Tracknumber=%tracknr%" -T "Comment=%comment%" %source%


TOC of the extracted CD

Track | Start | Length | Start sector | End sector
––––––––––––––––––––––––––––-
1 | 0:00.00 | 2:28.46 | 0 | 11145
2 | 2:28.46 | 2:51.26 | 11146 | 23996
3 | 5:19.72 | 2:03.66 | 23997 | 33287
4 | 7:23.63 | 2:43.60 | 33288 | 45572
5 | 10:07.48 | 2:36.19 | 45573 | 57291
6 | 12:43.67 | 2:16.09 | 57292 | 67500
7 | 15:00.01 | 2:41.73 | 67501 | 79648
8 | 17:41.74 | 1:54.40 | 79649 | 88238
9 | 19:36.39 | 2:33.11 | 88239 | 99724
10 | 22:09.50 | 2:09.67 | 99725 | 109466
11 | 24:19.42 | 2:12.63 | 109467 | 119429
12 | 26:32.30 | 2:55.28 | 119430 | 132582
13 | 29:27.58 | 2:13.54 | 132583 | 142611
14 | 31:41.37 | 2:41.01 | 142612 | 154687
15 | 34:22.38 | 2:39.07 | 154688 | 166619
16 | 37:01.45 | 2:20.15 | 166620 | 177134
17 | 39:21.60 | 2:25.31 | 177135 | 188040
18 | 41:47.16 | 2:18.02 | 188041 | 198392
19 | 44:05.18 | 2:12.09 | 198393 | 208301
20 | 46:17.27 | 2:19.42 | 208302 | 218768


Range status and errors

Selected range

Filename H:\dafnaplus\VA - Twist And Shout\Disc 2\Various Artists - Twist And Shout (Disc 2) (BT3145).wav

Peak level 100.0 %
Extraction speed 3.8 X
Range quality 99.8 %
Test CRC 718D5AF3
Copy CRC 718D5AF3
Copy OK

No errors occurred


AccurateRip summary

Track 1 accurately ripped (confidence 3) [A2EF02B5] (AR v2)
Track 2 accurately ripped (confidence 3) [BDE75FD7] (AR v2)
Track 3 accurately ripped (confidence 3) [234D6793] (AR v2)
Track 4 accurately ripped (confidence 3) [871660F4] (AR v2)
Track 5 accurately ripped (confidence 3) [E84737B7] (AR v2)
Track 6 accurately ripped (confidence 3) [213FF7CC] (AR v2)
Track 7 accurately ripped (confidence 3) [DCC9C8E7] (AR v2)
Track 8 accurately ripped (confidence 3) [744D9E56] (AR v2)
Track 9 accurately ripped (confidence 3) [B3E720ED] (AR v2)
Track 10 accurately ripped (confidence 3) [E3A90FB2] (AR v2)
Track 11 accurately ripped (confidence 3) [69BA84D5] (AR v2)
Track 12 accurately ripped (confidence 3) [1A4C033D] (AR v2)
Track 13 accurately ripped (confidence 3) [5F0F46FD] (AR v2)
Track 14 accurately ripped (confidence 3) [BD0666A2] (AR v2)
Track 15 accurately ripped (confidence 3) [927ABA97] (AR v2)
Track 16 accurately ripped (confidence 3) [E1703FEB] (AR v2)
Track 17 accurately ripped (confidence 3) [BECE93F2] (AR v2)
Track 18 accurately ripped (confidence 3) [1EEA11BF] (AR v2)
Track 19 accurately ripped (confidence 3) [EBA9D0F6] (AR v2)
Track 20 accurately ripped (confidence 3) [8945C779] (AR v2)

All tracks accurately ripped

End of status report

–– CUETools DB Plugin V2.1.6

[CTDB TOCID: 485WoPEJC9lwyhpgS.p7rJK21Js-] found
Submit result: already submitted
Track | CTDB Status
1 | (4/4) Accurately ripped
2 | (4/4) Accurately ripped
3 | (4/4) Accurately ripped
4 | (4/4) Accurately ripped
5 | (4/4) Accurately ripped
6 | (4/4) Accurately ripped
7 | (4/4) Accurately ripped
8 | (4/4) Accurately ripped
9 | (4/4) Accurately ripped
10 | (4/4) Accurately ripped
11 | (4/4) Accurately ripped
12 | (4/4) Accurately ripped
13 | (4/4) Accurately ripped
14 | (4/4) Accurately ripped
15 | (4/4) Accurately ripped
16 | (4/4) Accurately ripped
17 | (4/4) Accurately ripped
18 | (4/4) Accurately ripped
19 | (4/4) Accurately ripped
20 | (4/4) Accurately ripped


==== Log checksum DFB81704DCD2C471881C3BBE999112D2618228CF7B7E1CC73C5CB29A5F18B21C ====


VA - Twist And Shout: 60 Songs That Influenced The Beatles (2017)

Tracklist CD3:

01. Twist And Shout (The Isley Brothers) 2:32
02. You've Really Got A Hold On Me (The Miracles) 3:01
03. Please Mr. Postman (The Marvelettes) 2:31
04. Some Other Guy (Richie Barrett) 2:20
05. Stand By Me (Ben E. King) 2:55
06. Glad All Over (Carl Perkins) 1:42
07. Crying, Waiting, Hoping (Buddy Holly & The Picks) 2:05
08. Memphis, Tennessee (Chuck Berry) 2:14
09. Ooh My Soul! (Little Richard) 1:54
10. Shout (Parts 1 & 2) (The Isley Brothers) 4:26
11. Anna (Go To Him) (Arthur Alexander) 2:51
12. Baby It's You (The Shirelles) 2:43
13. Besame Mucho (Part 1) (The Coasters) 2:17
14. Dream Baby (How Long Must I Dream) (Roy Orbison) 2:32
15. Chains (The Cookies) 2:32
16. Keep Your Hands Off My Baby (Little Eva) 2:38
17. Mr. Moonlight (Dr. Feelgood & The Interns) 2:36
18. A Taste Of Honey (Lenny Welch) 2:40
19. Soldier Of Love (Lay Down Your Arms) (Arthur Alexander) 2:18
20. Till There Was You (Shirley Jones) 3:00

Exact Audio Copy V1.3 from 2. September 2016

EAC extraction logfile from 16. March 2018, 20:12

Various Artists / Twist And Shout (Disc 3) (BT3145)

Used drive : PLEXTOR DVDR PX-891SA Adapter: 1 ID: 0

Read mode : Secure
Utilize accurate stream : Yes
Defeat audio cache : Yes
Make use of C2 pointers : No

Read offset correction : 6
Overread into Lead-In and Lead-Out : No
Fill up missing offset samples with silence : Yes
Delete leading and trailing silent blocks : No
Null samples used in CRC calculations : Yes
Used interface : Native Win32 interface for Win NT & 2000

Used output format : User Defined Encoder
Selected bitrate : 768 kBit/s
Quality : High
Add ID3 tag : No
Command line compressor : C:\Program Files (x86)\Exact Audio Copy\Flac\flac.exe
Additional command line options : -V -8 -T "Genre=%genre%" -T "Artist=%artist%" -T "Title=%title%" -T "Album=%albumtitle%" -T "Date=%year%" -T "Tracknumber=%tracknr%" -T "Comment=%comment%" %source%


TOC of the extracted CD

Track | Start | Length | Start sector | End sector
––––––––––––––––––––––––––––-
1 | 0:00.00 | 2:32.17 | 0 | 11416
2 | 2:32.17 | 3:00.63 | 11417 | 24979
3 | 5:33.05 | 2:31.25 | 24980 | 36329
4 | 8:04.30 | 2:20.35 | 36330 | 46864
5 | 10:24.65 | 2:55.17 | 46865 | 60006
6 | 13:20.07 | 1:42.18 | 60007 | 67674
7 | 15:02.25 | 2:05.21 | 67675 | 77070
8 | 17:07.46 | 2:14.12 | 77071 | 87132
9 | 19:21.58 | 1:53.72 | 87133 | 95679
10 | 21:15.55 | 4:26.27 | 95680 | 115656
11 | 25:42.07 | 2:51.27 | 115657 | 128508
12 | 28:33.34 | 2:42.49 | 128509 | 140707
13 | 31:16.08 | 2:16.44 | 140708 | 150951
14 | 33:32.52 | 2:32.31 | 150952 | 162382
15 | 36:05.08 | 2:31.67 | 162383 | 173774
16 | 38:37.00 | 2:37.72 | 173775 | 185621
17 | 41:14.72 | 2:35.64 | 185622 | 197310
18 | 43:50.61 | 2:39.46 | 197311 | 209281
19 | 46:30.32 | 2:18.13 | 209282 | 219644
20 | 48:48.45 | 3:00.01 | 219645 | 233145


Range status and errors

Selected range

Filename H:\dafnaplus\VA - Twist And Shout\Disc 3\Various Artists - Twist And Shout (Disc 3) (BT3145).wav

Peak level 100.0 %
Extraction speed 2.5 X
Range quality 99.8 %
Test CRC 08F65AF8
Copy CRC 08F65AF8
Copy OK

No errors occurred


AccurateRip summary

Track 1 accurately ripped (confidence 3) [18EE5BD3] (AR v2)
Track 2 accurately ripped (confidence 3) [3E7A85B6] (AR v2)
Track 3 accurately ripped (confidence 3) [4DB2A547] (AR v2)
Track 4 accurately ripped (confidence 3) [96387391] (AR v2)
Track 5 accurately ripped (confidence 3) [B3CCF515] (AR v2)
Track 6 accurately ripped (confidence 3) [9AAF23D6] (AR v2)
Track 7 accurately ripped (confidence 3) [B2478D9E] (AR v2)
Track 8 accurately ripped (confidence 3) [50A2A7B2] (AR v2)
Track 9 accurately ripped (confidence 3) [52C081F1] (AR v2)
Track 10 accurately ripped (confidence 3) [C0B4D0AD] (AR v2)
Track 11 accurately ripped (confidence 3) [46B1CB54] (AR v2)
Track 12 accurately ripped (confidence 3) [75E1B046] (AR v2)
Track 13 accurately ripped (confidence 3) [56AC599C] (AR v2)
Track 14 accurately ripped (confidence 3) [9112827D] (AR v2)
Track 15 accurately ripped (confidence 3) [33D55AB9] (AR v2)
Track 16 accurately ripped (confidence 3) [8EDAFE2D] (AR v2)
Track 17 accurately ripped (confidence 3) [B7D57E86] (AR v2)
Track 18 accurately ripped (confidence 3) [242BDD31] (AR v2)
Track 19 accurately ripped (confidence 3) [B7DED41D] (AR v2)
Track 20 accurately ripped (confidence 3) [CA319093] (AR v2)

All tracks accurately ripped

End of status report

–– CUETools DB Plugin V2.1.6

[CTDB TOCID: t8Wt7MC1zU9.9WPV3ERbs7r8ElQ-] found
Submit result: already submitted
Track | CTDB Status
1 | (4/4) Accurately ripped
2 | (4/4) Accurately ripped
3 | (4/4) Accurately ripped
4 | (4/4) Accurately ripped
5 | (4/4) Accurately ripped
6 | (4/4) Accurately ripped
7 | (4/4) Accurately ripped
8 | (4/4) Accurately ripped
9 | (4/4) Accurately ripped
10 | (4/4) Accurately ripped
11 | (4/4) Accurately ripped
12 | (4/4) Accurately ripped
13 | (4/4) Accurately ripped
14 | (4/4) Accurately ripped
15 | (4/4) Accurately ripped
16 | (4/4) Accurately ripped
17 | (4/4) Accurately ripped
18 | (4/4) Accurately ripped
19 | (4/4) Accurately ripped
20 | (4/4) Accurately ripped


==== Log checksum E2B6A251D775A5743830DD957EF6EDADF341180B5E47DF4949A23B632FF0CE38 ====


VA - Twist And Shout: 60 Songs That Influenced The Beatles (2017)

All thanks go to dafnaplus

Download VA - Twist And Shout: 60 Songs That Influenced The Beatles (2017):