Subcategories

Type O Negative - Life Is Killing Me (2003) (Japan, RRCY-21184)

Posted By: apocalipsys2014
Type O Negative - Life Is Killing Me (2003) (Japan, RRCY-21184)

Type O Negative - Life Is Killing Me (2003)
Year & Label: 2003, Roadrunner Japan inc., Tokyo | CD#: RRCY-21184
Flac (image) | MP3 CBR 320 Kbps | Artwork (PNG, 300 dpi) | File-hosts: FilePost
Gothic Metal/Doom | FLAC: 570 MB | Artwork: 140 MB | MP3: 190 MB | 5% WinRAR Recovery

EAC Secure-rip with LOG+CUE+COVERS | Source: eMule

"If God were suddently condemned to live the life which he has inflicted upon men, he would kill himself."
- Alexander Dumas {1802 - 1870}


And so the above quote sets the tone for the overall theme of this opus, which remains decidedly melancholy with a sharp bend towards compassion in a black-hearted sense, with said black heart surrounded in bloody thorns. The pulse-line leaps with life still, cursing from the cauldron of low-boiling type o negative type acid-blood in the black veins of these minstrels. Songs range from lost loves, depression, sorrowful memories, twisted passions and as always, dark erotica. Slow-grinding guitars, Cathedralesque keyboards, and Steele's brooding and echoing vocals of deeply-hewn resonance envelopes the compositions like sonic enfolding black leathern wings. The band have found their niche in this corner of Hell, a daemon-bestowed formula, employing it to a marvellous timeless enchantment, both evocative and sustaining.

Of particular mention, the introductory inclusion "Thir13teen", which is supposedly "pastime music from The Munsters television show" {note from CD booklet}; and Mr. Steele also credits Fred Gwynne for "cosmetic inspiration".

The music seems to float like a green transmutating fog, through a blackened forest underneath the cold glow of the moon. Dark Angel cantibles, sublime in beauty an strength.- blissfully haunting.

www.metal-archives.com
Type O Negative official homepage
Type O Negative at Wikipedia
Type O Negative at MySpace

Musicians:

Vocals, Bass : Peter Steele
Guitar : Peter Steele
Drums : Johnny Kelly
Keyboards : Josh Silver

Produced by Silver/Steele
Engineered and mixed by Mike Marciano and Josh Silver
Recorded and Mixed at Systems Two and Sty in the Sky, Brooklyn, NY
Additional recording and mixing by Peter Steele at Systems Two and Toben Project Studio, Brooklyn, NY
Mastered by George Marino at Sterling Sound, New York, NY

Track List:

01. Thir13teen [1:08]
02. I Don't Wanna Be Me [5:09]
03. Less Than Zero (<0) [5:25]
04. Todd's Ship Gods (Above All Things) [4:11]
05. I Like Goils [2:35]
06. …A Dish Best Served Coldly [7:13]
07. How Could She? [7:36]
08. Life Is Killing Me [6:35]
09. Nettie [4:47]
10. (We Were) Electrocute [6:39]
11. IYDKMIGTHTKY (Gimme That) [6:20]
12. Angry Inch [3:39]
13. Anesthesia [6:41]
14. Drunk In Paris [1:27]
15. The Dream Is Dead [5:07]

Exact Audio Copy V1.0 beta 3 from 29. August 2011

EAC extraction logfile from 17. February 2013, 20:00

Type O Negative / Life Is Killing Me (Roadrunner Records, RRCY-21184)

Used drive : ASUS DRW-24B1ST Adapter: 3 ID: 0

Read mode : Secure
Utilize accurate stream : Yes
Defeat audio cache : Yes
Make use of C2 pointers : No

Read offset correction : 6
Overread into Lead-In and Lead-Out : No
Fill up missing offset samples with silence : Yes
Delete leading and trailing silent blocks : No
Null samples used in CRC calculations : Yes
Used interface : Native Win32 interface for Win NT & 2000

Used output format : User Defined Encoder
Selected bitrate : 1024 kBit/s
Quality : High
Add ID3 tag : No
Command line compressor : C:\Program Files\FLAC\flac.exe
Additional command line options : -8 -V %source% -o %dest%


TOC of the extracted CD

Track | Start | Length | Start sector | End sector
––––––––––––––––––––––––––––-
1 | 0:00.00 | 1:07.55 | 0 | 5079
2 | 1:07.55 | 5:08.68 | 5080 | 28247
3 | 6:16.48 | 5:25.32 | 28248 | 52654
4 | 11:42.05 | 4:10.42 | 52655 | 71446
5 | 15:52.47 | 2:35.24 | 71447 | 83095
6 | 18:27.71 | 7:13.04 | 83096 | 115574
7 | 25:41.00 | 7:35.39 | 115575 | 149738
8 | 33:16.39 | 6:35.03 | 149739 | 179366
9 | 39:51.42 | 4:46.51 | 179367 | 200867
10 | 44:38.18 | 6:38.45 | 200868 | 230762
11 | 51:16.63 | 6:20.22 | 230763 | 259284
12 | 57:37.10 | 3:39.05 | 259285 | 275714
13 | 61:16.15 | 6:41.13 | 275715 | 305802
14 | 67:57.28 | 1:27.36 | 305803 | 312363
15 | 69:24.64 | 5:07.15 | 312364 | 335403


Range status and errors

Selected range

Filename C:\Mysterons [Skull_of_Sheeps]\Type O Negative [2003] Life Is Killing Me (Roadrunner Records, RRCY-21184)\Type O Negative - Life Is Killing Me (Japan, RRCY-21184).wav

Peak level 100.0 %
Extraction speed 9.6 X
Range quality 99.9 %
Test CRC 0370876D
Copy CRC 0370876D
Copy OK

No errors occurred


AccurateRip summary

Track 1 accurately ripped (confidence 19) [2942C7B1] (AR v2)
Track 2 accurately ripped (confidence 18) [E7E6A103] (AR v2)
Track 3 accurately ripped (confidence 19) [C9ABC9ED] (AR v2)
Track 4 accurately ripped (confidence 19) [BA246BAE] (AR v2)
Track 5 accurately ripped (confidence 19) [1C255D1B] (AR v2)
Track 6 accurately ripped (confidence 19) [B4D937E6] (AR v2)
Track 7 accurately ripped (confidence 18) [DEEEDF08] (AR v2)
Track 8 accurately ripped (confidence 18) [0463338A] (AR v2)
Track 9 accurately ripped (confidence 18) [93A2493D] (AR v2)
Track 10 accurately ripped (confidence 18) [4D665B0F] (AR v2)
Track 11 accurately ripped (confidence 18) [1202BECA] (AR v2)
Track 12 accurately ripped (confidence 18) [31C72922] (AR v2)
Track 13 accurately ripped (confidence 18) [52D9E38A] (AR v2)
Track 14 accurately ripped (confidence 19) [E07AD69C] (AR v2)
Track 15 accurately ripped (confidence 18) [95E4ED6E] (AR v2)

All tracks accurately ripped

End of status report

–– CUETools DB Plugin V2.1.4

[CTDB TOCID: UjU6H.uAU87VKQr.WIbjk7fnMqk-] found
Submit result: UjU6H.uAU87VKQr.WIbjk7fnMqk- has been confirmed
Track | CTDB Status
1 | (33/33) Accurately ripped
2 | (33/33) Accurately ripped
3 | (33/33) Accurately ripped
4 | (33/33) Accurately ripped
5 | (33/33) Accurately ripped
6 | (33/33) Accurately ripped
7 | (33/33) Accurately ripped
8 | (33/33) Accurately ripped
9 | (33/33) Accurately ripped
10 | (33/33) Accurately ripped
11 | (33/33) Accurately ripped
12 | (33/33) Accurately ripped
13 | (33/33) Accurately ripped
14 | (33/33) Accurately ripped
15 | (33/33) Accurately ripped


==== Log checksum 6DC420396E73531B22AA8C4A31F021263B1786056CDF4234DED707093BF22D6B ====

Not my rip, not my scan-job. Thx very much to the original uploader Mysterons [Skull_of_Sheeps]!
5% WinRar Recovery Record for all files.
Try before you might buy. Support the artists you like and buy their stuff whenever you can afford it.
FLAC, image + atrwork or mp3 at FilePost.com:
FLAC | Artwork | Mp3 320 kbps