Tags
Language
Tags

U2 - Songs Of Experience (Deluxe Edition) (2017)

Posted By: SERTiL
U2 - Songs Of Experience (Deluxe Edition) (2017)

U2 - Songs Of Experience (Deluxe Edition) (2017)
XLD Rip | FLAC (tracks)+cue, log, front cover | 67:38 min | 408 MB
Label: Island Records ‎– 5797700 | Tracks: 17
Rock

U2 is returning with a new studio album, „Songs of Experience“. U2, the biggest name in rock music, is back with their highly anticipated 14th studio album Songs of Experience. A collection of 13 songs in the form of intimate letters to places and people including family, friends and fans, featuring tracks "The Blackout" and first single "You’re The Best Thing About Me".

The album was started in earnest during rehearsals for 2015’s "Innocence and Experience" tour, as the band worked with Joylon Thomas as rehearsals commenced in Vancouver for that tour. Recording continued and the band worked with producers Jacknife Lee, Andy Barlow, and Steve Lillywhite to finish the album.

Tracklist:
01. Love Is All We Have Left 02:41
02. Lights Of Home 04:16
03. Youre The Best Thing About Me 03:45
04. Get Out Of Your Own Way 03:58
05. American Soul 04:21
06. Summer Of Love 03:24
07. Red Flag Day 03:19
08. The Showman (Little More Better) 03:23
09. The Little Things That Give You Away 04:55
10. Landlady 04:01
11. The Blackout 04:45
12. Love Is Bigger Than Anything In Its Way 04:00
13. 13 (There is A Light) 04:19
14. Ordinary Love (Extraordinary Mix) 03:47
15. Book Of Your Heart 03:55
16. Lights Of Home (St Peter's String Version) 04:33
17. Youre The Best Thing About Me (U2 Vs. Kygo) 04:16

Personnel:
Bono, lead vocals, rhythm guitar, harmonica
The Edge, lead guitar, keyboards, backing vocals
Adam Clayton, bass
Larry Mullen Jr., drums, percussion

X Lossless Decoder version 20170729 (150.3)

XLD extraction logfile from 2017-12-01 11:54:31 +0100

U2 / Songs Of Experience

Used drive : TS8XDVDS TRANSCEND (revision 1.00)
Media type : Pressed CD

Ripper mode : XLD Secure Ripper
Disable audio cache : OK for the drive with a cache less than 1375KiB
Make use of C2 pointers : NO
Read offset correction : 6
Max retry count : 100
Gap status : Analyzed, Appended (except HTOA)

TOC of the extracted CD
Track | Start | Length | Start sector | End sector
––––––––––––––––––––––––––––-
1 | 00:00:00 | 02:41:15 | 0 | 12089
2 | 02:41:15 | 04:16:67 | 12090 | 31356
3 | 06:58:07 | 03:45:30 | 31357 | 48261
4 | 10:43:37 | 03:58:22 | 48262 | 66133
5 | 14:41:59 | 04:21:55 | 66134 | 85763
6 | 19:03:39 | 03:24:05 | 85764 | 101068
7 | 22:27:44 | 03:19:53 | 101069 | 116046
8 | 25:47:22 | 03:23:59 | 116047 | 131330
9 | 29:11:06 | 04:55:32 | 131331 | 153487
10 | 34:06:38 | 04:01:30 | 153488 | 171592
11 | 38:07:68 | 04:45:70 | 171593 | 193037
12 | 42:53:63 | 04:00:45 | 193038 | 211082
13 | 46:54:33 | 04:19:56 | 211083 | 230563
14 | 51:14:14 | 03:47:13 | 230564 | 247601
15 | 55:01:27 | 03:55:29 | 247602 | 265255
16 | 58:56:56 | 04:33:12 | 265256 | 285742
17 | 63:29:68 | 04:16:37 | 285743 | 304979

AccurateRip Summary
Disc not found in AccurateRip DB.

All Tracks
Album gain : -6.84 dB
Peak : 1.000000
Statistics
Read error : 0
Jitter error (maybe fixed) : 0
Retry sector count : 0
Damaged sector count : 0

Track 01
Filename : /Volumes/LaCie 1 DL/U2 -2017- Songs of Experience (FLAC)/01 - Love Is All We Have Left.flac
Pre-gap length : 00:02:00

Track gain : -3.99 dB
Peak : 0.676117
CRC32 hash (test run) : D705EE09
CRC32 hash : D705EE09
CRC32 hash (skip zero) : F05DE6FC
AccurateRip v1 signature : 0C5DEDB8
AccurateRip v2 signature : 5CEA33D9
->Track not present in AccurateRip database.
Statistics
Read error : 0
Jitter error (maybe fixed) : 0
Retry sector count : 0
Damaged sector count : 0

Track 02
Filename : /Volumes/LaCie 1 DL/U2 -2017- Songs of Experience (FLAC)/02 - Lights Of Home.flac

Track gain : -8.47 dB
Peak : 0.988708
CRC32 hash (test run) : 91F462CC
CRC32 hash : 91F462CC
CRC32 hash (skip zero) : 5EA76655
AccurateRip v1 signature : BFB54BB9
AccurateRip v2 signature : 38748251
->Track not present in AccurateRip database.
Statistics
Read error : 0
Jitter error (maybe fixed) : 0
Retry sector count : 0
Damaged sector count : 0

Track 03
Filename : /Volumes/LaCie 1 DL/U2 -2017- Songs of Experience (FLAC)/03 - You're The Best Thing About Me.flac

Track gain : -6.61 dB
Peak : 0.988556
CRC32 hash (test run) : 2E64CABC
CRC32 hash : 2E64CABC
CRC32 hash (skip zero) : 54A3C398
AccurateRip v1 signature : 38265BAB
AccurateRip v2 signature : 508B9F81
->Track not present in AccurateRip database.
Statistics
Read error : 0
Jitter error (maybe fixed) : 0
Retry sector count : 0
Damaged sector count : 0

Track 04
Filename : /Volumes/LaCie 1 DL/U2 -2017- Songs of Experience (FLAC)/04 - Get Out Of Your Own Way.flac

Track gain : -6.43 dB
Peak : 0.988586
CRC32 hash (test run) : 5AD0122C
CRC32 hash : 5AD0122C
CRC32 hash (skip zero) : A3534C94
AccurateRip v1 signature : 46502D6B
AccurateRip v2 signature : C90E5360
->Track not present in AccurateRip database.
Statistics
Read error : 0
Jitter error (maybe fixed) : 0
Retry sector count : 0
Damaged sector count : 0

Track 05
Filename : /Volumes/LaCie 1 DL/U2 -2017- Songs of Experience (FLAC)/05 - American Soul.flac

Track gain : -7.59 dB
Peak : 0.999969
CRC32 hash (test run) : 848EF6F1
CRC32 hash : 848EF6F1
CRC32 hash (skip zero) : B15D406D
AccurateRip v1 signature : 2ACD6700
AccurateRip v2 signature : F492E2FA
->Track not present in AccurateRip database.
Statistics
Read error : 0
Jitter error (maybe fixed) : 0
Retry sector count : 0
Damaged sector count : 0

Track 06
Filename : /Volumes/LaCie 1 DL/U2 -2017- Songs of Experience (FLAC)/06 - Summer Of Love.flac

Track gain : -6.31 dB
Peak : 0.988556
CRC32 hash (test run) : A4662A55
CRC32 hash : A4662A55
CRC32 hash (skip zero) : 4AA40E19
AccurateRip v1 signature : BEECF6BE
AccurateRip v2 signature : B2E5190F
->Track not present in AccurateRip database.
Statistics
Read error : 0
Jitter error (maybe fixed) : 0
Retry sector count : 0
Damaged sector count : 0

Track 07
Filename : /Volumes/LaCie 1 DL/U2 -2017- Songs of Experience (FLAC)/07 - Red Flag Day.flac

Track gain : -7.76 dB
Peak : 0.988586
CRC32 hash (test run) : C3590F93
CRC32 hash : C3590F93
CRC32 hash (skip zero) : 348559B3
AccurateRip v1 signature : F9FE4A83
AccurateRip v2 signature : 292EF207
->Track not present in AccurateRip database.
Statistics
Read error : 0
Jitter error (maybe fixed) : 0
Retry sector count : 0
Damaged sector count : 0

Track 08
Filename : /Volumes/LaCie 1 DL/U2 -2017- Songs of Experience (FLAC)/08 - The Showman (Little More Better).flac

Track gain : -6.53 dB
Peak : 0.988586
CRC32 hash (test run) : 5D947B4C
CRC32 hash : 5D947B4C
CRC32 hash (skip zero) : 8532260C
AccurateRip v1 signature : D4E4C45C
AccurateRip v2 signature : 460DE900
->Track not present in AccurateRip database.
Statistics
Read error : 0
Jitter error (maybe fixed) : 0
Retry sector count : 0
Damaged sector count : 0

Track 09
Filename : /Volumes/LaCie 1 DL/U2 -2017- Songs of Experience (FLAC)/09 - The Little Things That Give You Away.flac

Track gain : -5.74 dB
Peak : 0.988586
CRC32 hash (test run) : 92849960
CRC32 hash : 92849960
CRC32 hash (skip zero) : 2F8A3D47
AccurateRip v1 signature : 6F88998F
AccurateRip v2 signature : DF986104
->Track not present in AccurateRip database.
Statistics
Read error : 0
Jitter error (maybe fixed) : 0
Retry sector count : 0
Damaged sector count : 0

Track 10
Filename : /Volumes/LaCie 1 DL/U2 -2017- Songs of Experience (FLAC)/10 - Landlady.flac

Track gain : -5.28 dB
Peak : 1.000000
CRC32 hash (test run) : F21A4652
CRC32 hash : F21A4652
CRC32 hash (skip zero) : 488AC9B9
AccurateRip v1 signature : 63D2D497
AccurateRip v2 signature : 109EF587
->Track not present in AccurateRip database.
Statistics
Read error : 0
Jitter error (maybe fixed) : 0
Retry sector count : 0
Damaged sector count : 0

Track 11
Filename : /Volumes/LaCie 1 DL/U2 -2017- Songs of Experience (FLAC)/11 - The Blackout.flac

Track gain : -5.98 dB
Peak : 0.988586
CRC32 hash (test run) : E91DFD4C
CRC32 hash : E91DFD4C
CRC32 hash (skip zero) : A9AA2C21
AccurateRip v1 signature : B73620B2
AccurateRip v2 signature : A6C088D7
->Track not present in AccurateRip database.
Statistics
Read error : 0
Jitter error (maybe fixed) : 0
Retry sector count : 0
Damaged sector count : 0

Track 12
Filename : /Volumes/LaCie 1 DL/U2 -2017- Songs of Experience (FLAC)/12 - Love Is Bigger Than Anything In His Way.flac

Track gain : -6.66 dB
Peak : 0.988556
CRC32 hash (test run) : 8CC3CA39
CRC32 hash : 8CC3CA39
CRC32 hash (skip zero) : 183179A6
AccurateRip v1 signature : 15047841
AccurateRip v2 signature : 6A8B02E4
->Track not present in AccurateRip database.
Statistics
Read error : 0
Jitter error (maybe fixed) : 0
Retry sector count : 0
Damaged sector count : 0

Track 13
Filename : /Volumes/LaCie 1 DL/U2 -2017- Songs of Experience (FLAC)/13 - 13 (There Is A Light).flac

Track gain : -3.54 dB
Peak : 0.988556
CRC32 hash (test run) : C117ECA6
CRC32 hash : C117ECA6
CRC32 hash (skip zero) : 2C241A28
AccurateRip v1 signature : 1D851BB9
AccurateRip v2 signature : BCDAAB72
->Track not present in AccurateRip database.
Statistics
Read error : 0
Jitter error (maybe fixed) : 0
Retry sector count : 0
Damaged sector count : 0

Track 14
Filename : /Volumes/LaCie 1 DL/U2 -2017- Songs of Experience (FLAC)/14 - Ordinary Love (Extraordinary Mix).flac

Track gain : -6.09 dB
Peak : 0.988586
CRC32 hash (test run) : FFF37444
CRC32 hash : FFF37444
CRC32 hash (skip zero) : EDDCCFC0
AccurateRip v1 signature : 839CECA9
AccurateRip v2 signature : 5A3FAC41
->Track not present in AccurateRip database.
Statistics
Read error : 0
Jitter error (maybe fixed) : 0
Retry sector count : 0
Damaged sector count : 0

Track 15
Filename : /Volumes/LaCie 1 DL/U2 -2017- Songs of Experience (FLAC)/15 - Book Of Your Heart.flac

Track gain : -7.44 dB
Peak : 0.988617
CRC32 hash (test run) : 7A1E7FB8
CRC32 hash : 7A1E7FB8
CRC32 hash (skip zero) : 6E391957
AccurateRip v1 signature : B34704CD
AccurateRip v2 signature : 3397C6C2
->Track not present in AccurateRip database.
Statistics
Read error : 0
Jitter error (maybe fixed) : 0
Retry sector count : 0
Damaged sector count : 0

Track 16
Filename : /Volumes/LaCie 1 DL/U2 -2017- Songs of Experience (FLAC)/16 - Lights Of Home (St Peter's String Version).flac

Track gain : -8.34 dB
Peak : 0.967682
CRC32 hash (test run) : 8392B8B9
CRC32 hash : 8392B8B9
CRC32 hash (skip zero) : 636D3DF0
AccurateRip v1 signature : 2B17A96C
AccurateRip v2 signature : 1BEE507F
->Track not present in AccurateRip database.
Statistics
Read error : 0
Jitter error (maybe fixed) : 0
Retry sector count : 0
Damaged sector count : 0

Track 17
Filename : /Volumes/LaCie 1 DL/U2 -2017- Songs of Experience (FLAC)/17 - You're The Best Thing About Me (U2 Vs Kygo).flac

Track gain : -6.75 dB
Peak : 0.988739
CRC32 hash (test run) : 7B4DDA6B
CRC32 hash : 7B4DDA6B
CRC32 hash (skip zero) : C9E828C0
AccurateRip v1 signature : DA944B19
AccurateRip v2 signature : 0A376358
->Track not present in AccurateRip database.
Statistics
Read error : 0
Jitter error (maybe fixed) : 0
Retry sector count : 0
Damaged sector count : 0

No errors occurred

End of status report

––-BEGIN XLD SIGNATURE––-
PinHDSTZKyb.gh7WkXkAnB.QxGiC5UmofzduRuEAZNrf83c5aTA9v.yqV_wXDO_aUroCoJXyZflso7uKV7q9WI0YAp9VqReTUD3q90S
––-END XLD SIGNATURE––-


Thanks to the Original customer.