Subcategories

U.K. - Danger Money (1979) [Virgin VJCP-68780, Japan]

Posted By: v3122
U.K. - Danger Money (1979) [Virgin VJCP-68780, Japan]

U.K. - Danger Money (1979)
EAC | Flac(Image) + Cue + Log & MP3 CBR 320Kbps
2006 | Virgin VJCP-68780 | ~ 270 or 102 Mb | Scans(jpg) -> 118 Mb
Progressive Rock

Danger Money is the second and final studio album by the progressive rock supergroup U.K., featuring John Wetton , Eddie Jobson and Terry Bozzio. It was released by E.G. Records / Polydor in March 1979. "The Only Thing She Needs", "Caesar's Palace Blues" and "Carrying No Cross" had been performed on tour throughout 1978 (and an early version of "Carrying No Cross" included what became the intro to the title track) by the band's original line-up with Bill Bruford and Allan Holdsworth. "Rendezvous 6:02" and "Nothing to Lose" were both edited for single release…

~ wiki
U.K. - Danger Money (1979):

U.K. - Danger Money (1979) [Virgin VJCP-68780, Japan]

Tracklist:

01. Danger Money 8:16
02. Rendezvous 6.02 5:00
03. The Only Thing She Needs 7:55
04. Caesar's Palace Blues 4:45
05. Nothing to Lose 3:58
06. Carrying No Cross 12:22

Exact Audio Copy V1.3 from 2. September 2016

EAC extraction logfile from 10. April 2018, 22:05

U.K. / Danger Money (VJCP-68780)

Used drive : PLEXTOR DVDR PX-891SA Adapter: 1 ID: 0

Read mode : Secure
Utilize accurate stream : Yes
Defeat audio cache : Yes
Make use of C2 pointers : No

Read offset correction : 6
Overread into Lead-In and Lead-Out : No
Fill up missing offset samples with silence : Yes
Delete leading and trailing silent blocks : No
Null samples used in CRC calculations : Yes
Used interface : Native Win32 interface for Win NT & 2000

Used output format : User Defined Encoder
Selected bitrate : 768 kBit/s
Quality : High
Add ID3 tag : No
Command line compressor : C:\Program Files (x86)\Exact Audio Copy\Flac\flac.exe
Additional command line options : -V -8 -T "Genre=%genre%" -T "Artist=%artist%" -T "Title=%title%" -T "Album=%albumtitle%" -T "Date=%year%" -T "Tracknumber=%tracknr%" -T "Comment=%comment%" %source%


TOC of the extracted CD

Track | Start | Length | Start sector | End sector
––––––––––––––––––––––––––––-
1 | 0:00.00 | 8:15.50 | 0 | 37174
2 | 8:15.50 | 5:00.15 | 37175 | 59689
3 | 13:15.65 | 7:54.38 | 59690 | 95277
4 | 21:10.28 | 4:44.52 | 95278 | 116629
5 | 25:55.05 | 3:57.60 | 116630 | 134464
6 | 29:52.65 | 12:21.70 | 134465 | 190109


Range status and errors

Selected range

Filename H:\dafnaplus\U.K. - Danger Money (VJCP-68780)\U.K. - Danger Money (VJCP-68780).wav

Peak level 100.0 %
Extraction speed 5.3 X
Range quality 99.9 %
Test CRC F5495495
Copy CRC F5495495
Copy OK

No errors occurred


AccurateRip summary

Track 1 accurately ripped (confidence 12) [5CEB8237] (AR v2)
Track 2 accurately ripped (confidence 12) [EDD34560] (AR v2)
Track 3 accurately ripped (confidence 12) [E8379B51] (AR v2)
Track 4 accurately ripped (confidence 12) [3B80CDCB] (AR v2)
Track 5 accurately ripped (confidence 12) [1CBE0493] (AR v2)
Track 6 accurately ripped (confidence 12) [D9F96E44] (AR v2)

All tracks accurately ripped

End of status report

–– CUETools DB Plugin V2.1.6

[CTDB TOCID: pssTMJI4w.hAmHYDlK8N5RixdTk-] found
Submit result: pssTMJI4w.hAmHYDlK8N5RixdTk- has been confirmed
Track | CTDB Status
1 | (16/16) Accurately ripped
2 | (16/16) Accurately ripped
3 | (16/16) Accurately ripped
4 | (16/16) Accurately ripped
5 | (16/16) Accurately ripped
6 | (16/16) Accurately ripped


==== Log checksum 8D72838EC2CF7029B495C37142FE2A6ACF26FC18ABF3108BC8F94CF7E40F7C9B ====


[CUETools log; Date: 10.04.2018 22:08:32; Version: 2.1.5]
[CTDB TOCID: pssTMJI4w.hAmHYDlK8N5RixdTk-] found.
Track | CTDB Status
1 | (17/17) Accurately ripped
2 | (17/17) Accurately ripped
3 | (17/17) Accurately ripped
4 | (17/17) Accurately ripped
5 | (17/17) Accurately ripped
6 | (17/17) Accurately ripped
[AccurateRip ID: 0009aa04-0033326b-6009e606] found.
Track [ CRC | V2 ] Status
01 [58705101|5ceb8237] (05+12/19) Accurately ripped
02 [9c78d8ad|edd34560] (05+12/19) Accurately ripped
03 [ac9755dd|e8379b51] (05+12/19) Accurately ripped
04 [5a9ac878|3b80cdcb] (05+12/19) Accurately ripped
05 [d1211606|1cbe0493] (05+12/19) Accurately ripped
06 [a45eb2a3|d9f96e44] (05+12/19) Accurately ripped
Offsetted by -664:
01 [a4841ae9] (00/19) No match (V2 was not tested)
02 [99d2d82c] (00/19) No match (V2 was not tested)
03 [6e62b80a] (00/19) No match (V2 was not tested)
04 [ef0fae83] (00/19) No match (V2 was not tested)
05 [263c9bb3] (00/19) No match (V2 was not tested)
06 [004d7b4b] (00/19) No match (V2 was not tested)
Offsetted by -474:
01 [4a1ed407] (00/19) No match (V2 was not tested)
02 [a02dc8bb] (00/19) No match (V2 was not tested)
03 [bb38e839] (00/19) No match (V2 was not tested)
04 [18fb5560] (00/19) No match (V2 was not tested)
05 [4eeee7e0] (00/19) No match (V2 was not tested)
06 [6b64e9f9] (00/19) No match (V2 was not tested)

Track Peak [ CRC32 ] [W/O NULL] [ LOG ]
– 100,0 [F5495495] [B3E13FDA] CRC32
01 92,0 [7E70356D] [5F9C2E68]
02 71,7 [D71F5292] [0372F27C]
03 97,6 [E282D2AD] [80A6B6C4]
04 100,0 [1A7CB01F] [55AD18D1]
05 95,1 [4A3404FD] [229CF450]
06 100,0 [5BEA4C66] [A155B46C]


U.K. - Danger Money (1979) [Virgin VJCP-68780, Japan]

All thanks go to dafnaplus

U.K. or U.K. in my Blog

Download U.K. - Danger Money (1979):