Tags
Language
Tags

VA - A Collection of Contemporary Blues Songs From The States (1992-1999) (17 CDs)

Posted By: murena
VA - A Collection of Contemporary Blues Songs From The States (1992-1999) (17 CDs)

VA - A Collection of Contemporary Blues Songs From The States (1992-1999) (17 CDs)
EAC Rip | APE (Image+.cue, log) | 17 CDs, 19:06:35 min | Covers included | 6,54 Gb
Genre: Blues / Label: Taxim

The concept of TALKING WITH THE BLUES is based on a view of the various US states as blues regions. Even casual blues listeners are familiar with the fact that there is Chicago Blues or Mississippi Blues and the gripping social history of the music is very much marked by its geography. But there is much more that just those two places and to this day blues music stays committed to local styles. Moreover, many US states are endowed with a unique cultural identity grown out of the prevailing social, historical and ethnic realities. Reflections of these specific identities are also expressed in the blues.

Contemporary American blues practice is not limited to just a handful of states and comes in many shapes and colors. Blues is part of everyday culture and people from all walks of life choose it as their favorite soundtrack for social activities. Blues culture can be found in many places, especially in the network-like multitude of bars, live music clubs and juke joints. These blues strongholds are mostly dominated by local heroes who do not lag behind when compared with the big names of the business. Many of these contemporary and still to be discovered artists are the cornerstones of this anthology.

The notion of a recurring blues renaissance in the US is misleading and deceptive inasmuch as the blues has never disappeared. The infrastructure of the blues scene is not based upon the music industry's PR efforts but kept alive by the inherent qualities of the music and the profound dedication of blues lovers all over the country. Good blues does not have an expiration date. Blues is soulful, emotional, direct and intense. The best of contemporary blues is blessed with the special kind of truthfulness that can turn the affairs of everyday life into something special. These are features which seem to have more or less disappeared from the world of modern pop music.

Neglecting the theoretical baggage of blues scholarship TAXIM aims at presenting an entertaining and regionally relevant cross-section of fine contemporary US blues like it is blossoming on the fringes of the music industry. So get ready for exceptional talent from a multitude of blues regions. TALKING WITH THE BLUES is about the special qualities that can still turn this music into a way of life. Put together with expertise and thought, these compilations feature artists who disprove the prejudiced notion of blues as a music paralyzed by cliches. The blues is alive and well. Not only in Texas, Chicago or Mississippi but everywhere from Shreveport to Milwaukee, from San Diego to Jersey City.

ALBUMS:
(1992) GOOD WHISKEY BLUES
(1992) NIGHTTIME ROUNDUP
(1993) MORE GOOD WHISKEY BLUES
(1993) TRUCKIN' MY BLUES AWAY
(1995) EVEN MORE GOOD WHISKEY BLUES
(1996) A COLD SHOT GOOD WHISKEY BLUES
(1996) DESASTER CITY BLUES
(1996) EVEN MORE BAY AREA BLUES
(1996) GARDEN STATE BLUES
(1996) MORE BAY AREA BLUES
(1996) SUNSHINE STATE BLUES
(1996) BAY AREA BLUES
(1997) MORE DESASTER CITY BLUES
(1998) A FIFTH OF GOOD WHISKEY BLUES
(1998) A FOURTH WAVE OF BAY AREA BLUES
(1999) GOOD WHISKEY BLUES LIVE
(1999) PEACH STATE BLUES

VA - A Collection of Contemporary Blues Songs From The States (1992-1999) (17 CDs)

VA - A Collection of Contemporary Blues Songs: Good Whiskey Blues (1992)
EAC Rip | APE (Image+.cue, log) | Cover included | 356 mb
Genre: Blues / Label: Taxim

Tracklist:
01. Doug Davis Band / Down don't bother me [0:03:51.49]
02. Michael Henderson / Ramblin' on my mind [0:03:44.53]
03. Tombstone Bullets & Jimmy Hall / Murdered by love [0:04:08.04]
04. Beat Daddys / Livin' this love [0:04:01.00]
05. Billy C. Farlow / A little meat on the side [0:03:15.33]
06. Freddie & the Screamers / Full moon on Mian Street [0:05:40.82]
07. Hypnotics / Womanizer [0:03:35.64]
08. Zip Gibson / Smoking Hookah Blues [0:03:57.33]
09. Toler Brothers / Goin' down slow [0:07:09.76]
10. Bleu Jackson / Lightning [0:03:56.66]
11. Bleu Jackson / You left your mark on me [0:03:36.86]
12. Jim Liban / Skin hunger [0:04:48.66]
13. Mojo Men / Midnight drag [0:03:17.50]
14. Homesick James / 12 year old boy [0:08:23.00]
15. Steddy Eddy / Blue Train [0:04:32.29]

Exact Audio Copy V0.99 prebeta 4 from 23. January 2008

Отчёт EAC об извлечении, выполненном 10. июня 2010, 17:44

Various Artists / Good Whiskey Blues

Дисковод: PLEXTOR DVDR PX-820A Adapter: 3 ID: 1

Режим чтения : Достоверность
Использование точного потока : Да
Отключение кэша аудио : Да
Использование указателей C2 : Нет

Коррекция смещения при чтении : 48
Способность читать области Lead-in и Lead-out : Нет
Заполнение пропущенных сэмплов тишиной : Да
Удаление блоков с тишиной в начале и конце : Нет
При вычислениях CRC использовались нулевые сэмплы : Да
Интерфейс : Встроенный Win32-интерфейс для Win NT/2000

Выходной формат : Внутренние WAV-операции
Формат сэмплов : 44.100 Гц; 16 бит; стерео

TOC извлечённого CD

Трек | Старт | Длительность | Начальный сектор | Конечный сектор
––––––––––––––––––––––––––––––––––-
1 | 0:00.00 | 3:51.37 | 0 | 17361
2 | 3:51.37 | 3:44.40 | 17362 | 34201
3 | 7:36.02 | 4:08.03 | 34202 | 52804
4 | 11:44.05 | 4:01.00 | 52805 | 70879
5 | 15:45.05 | 3:15.25 | 70880 | 85529
6 | 19:00.30 | 5:40.62 | 85530 | 111091
7 | 24:41.17 | 3:35.48 | 111092 | 127264
8 | 28:16.65 | 3:57.25 | 127265 | 145064
9 | 32:14.15 | 7:09.57 | 145065 | 177296
10 | 39:23.72 | 3:56.50 | 177297 | 195046
11 | 43:20.47 | 3:36.65 | 195047 | 211311
12 | 46:57.37 | 4:48.50 | 211312 | 232961
13 | 51:46.12 | 3:17.38 | 232962 | 247774
14 | 55:03.50 | 8:23.00 | 247775 | 285499
15 | 63:26.50 | 4:32.22 | 285500 | 305921

Характеристики диапазона извлечения и сообщения об ошибках

Выбранный диапазон

Имя файла D:\КОЛЛЕКЦИЯ 5\СБОРНИКИ TAXIM\GOOD WHISKEY BLUES\Various Artists - Good Whiskey Blues.wav

Пиковый уровень 96.7 %
Качество диапазона 100.0 %
CRC копии 14A83D92
Копирование… OK

Ошибок не произошло

AccurateRip: сводка

Трек 1 точное извлечение (доверие 1) [EC01112B]
Трек 2 точное извлечение (доверие 1) [96810337]
Трек 3 точное извлечение (доверие 1) [ED396386]
Трек 4 точное извлечение (доверие 1) [BA594673]
Трек 5 точное извлечение (доверие 1) [A4772315]
Трек 6 точное извлечение (доверие 1) [33858799]
Трек 7 точное извлечение (доверие 1) [0460D54F]
Трек 8 точное извлечение (доверие 1) [0EE6F34D]
Трек 9 точное извлечение (доверие 1) [DC26BB6F]
Трек 10 точное извлечение (доверие 1) [7544C5A0]
Трек 11 точное извлечение (доверие 1) [631711B3]
Трек 12 точное извлечение (доверие 1) [78618997]
Трек 13 точное извлечение (доверие 1) [0BDFBA77]
Трек 14 точное извлечение (доверие 1) [077C1ACD]
Трек 15 точное извлечение (доверие 1) [04A3B234]

Все треки извлечены точно

Конец отчёта



VA - A Collection of Contemporary Blues Songs From The States (1992-1999) (17 CDs)

VA - A Collection of Contemporary Blues Songs: Nighttime Roundup (1992)
EAC Rip | APE (Image+.cue, log) | Cover included | 352 mb
Genre: Blues / Label: Taxim

Tracklist:
01. Tommy Tutone / Love is out there somewhere [0:03:59.60]
02. Tommy Tutone / Eventually [0:04:32.66]
03. The Sluggers / The Buzz [0:03:52.40]
04. Eli And The Stranger / The dark side of the man [0:03:55.00]
05. Warsaw Falcons / Sometimes [0:05:21.89]
06. Warsaw Falcons / Hard habit [0:04:43.60]
07. Mr. Twistьr & Pointed Stick / Hard times in the U.S. of A. [0:03:16.77]
08. Full Moon Band / Contributing to the delinquency of A-minor [0:04:23.33]
09. Andy Arrow & the Twangtown Mavericks / Tear it up [0:03:12.02]
10. Richard Fagan / She's tough [0:03:14.64]
11. Larry Raspberry & The Highsteppers / The only way to win is surrender [0:03:28.33]
12. Larry Raspberry & The Highsteppers / When you cut me I bleed [0:03:53.82]
13. Gwil Owen & The Thieves / My silver tongue [0:03:47.57]
14. Gwil Owen & The Thieves / Ask any mirror [0:03:56.80]
15. B.C. & The Dartz / Lean, mean and hungry [0:04:11.53]

Exact Audio Copy V0.99 prebeta 4 from 23. January 2008

Отчёт EAC об извлечении, выполненном 10. июня 2010, 21:32

Various / Nighttime Roundup

Дисковод: PLEXTOR DVDR PX-820A Adapter: 3 ID: 1

Режим чтения : Достоверность
Использование точного потока : Да
Отключение кэша аудио : Да
Использование указателей C2 : Нет

Коррекция смещения при чтении : 48
Способность читать области Lead-in и Lead-out : Нет
Заполнение пропущенных сэмплов тишиной : Да
Удаление блоков с тишиной в начале и конце : Нет
При вычислениях CRC использовались нулевые сэмплы : Да
Интерфейс : Встроенный Win32-интерфейс для Win NT/2000

Выходной формат : Внутренние WAV-операции
Формат сэмплов : 44.100 Гц; 16 бит; стерео

TOC извлечённого CD

Трек | Старт | Длительность | Начальный сектор | Конечный сектор
––––––––––––––––––––––––––––––––––-
1 | 0:00.00 | 3:59.45 | 0 | 17969
2 | 3:59.45 | 4:32.50 | 17970 | 38419
3 | 8:32.20 | 3:52.30 | 38420 | 55849
4 | 12:24.50 | 3:55.00 | 55850 | 73474
5 | 16:19.50 | 5:21.67 | 73475 | 97616
6 | 21:41.42 | 4:43.45 | 97617 | 118886
7 | 26:25.12 | 3:16.58 | 118887 | 133644
8 | 29:41.70 | 4:23.25 | 133645 | 153394
9 | 34:05.20 | 3:12.02 | 153395 | 167796
10 | 37:17.22 | 3:14.48 | 167797 | 182394
11 | 40:31.70 | 3:28.25 | 182395 | 198019
12 | 44:00.20 | 3:53.62 | 198020 | 215556
13 | 47:54.07 | 3:47.43 | 215557 | 232624
14 | 51:41.50 | 3:56.60 | 232625 | 250384
15 | 55:38.35 | 4:11.40 | 250385 | 269249

Характеристики диапазона извлечения и сообщения об ошибках

Выбранный диапазон

Имя файла D:\КОЛЛЕКЦИЯ 5\СБОРНИКИ TAXIM\NIGHTTIME ROUNDUP\Various - Nighttime Roundup.wav

Пиковый уровень 83.1 %
Качество диапазона 100.0 %
CRC копии 2845B335
Копирование… OK

Ошибок не произошло

AccurateRip: сводка

Трек 1 нет в базе данных
Трек 2 нет в базе данных
Трек 3 нет в базе данных
Трек 4 нет в базе данных
Трек 5 нет в базе данных
Трек 6 нет в базе данных
Трек 7 нет в базе данных
Трек 8 нет в базе данных
Трек 9 нет в базе данных
Трек 10 нет в базе данных
Трек 11 нет в базе данных
Трек 12 нет в базе данных
Трек 13 нет в базе данных
Трек 14 нет в базе данных
Трек 15 нет в базе данных

Ни одного трека нет в базе AccurateRip

Конец отчёта



VA - A Collection of Contemporary Blues Songs From The States (1992-1999) (17 CDs)

VA - A Collection of Contemporary Blues Songs: More Good Whiskey Blues (1993)
EAC Rip | APE (Image+.cue, log) | 01:05:30 min | Cover included | 372 mb
Genre: Blues / Label: Taxim

Tracklist:
01. Metro Blues All Stars / Devil gets his Due [0:06:20.16]
02. Tim Wagoner and Wild Blue Yonder / Make it Rain [0:05:17.00]
03. Hypnotics / Blues Patrol [0:04:34.77]
04. Dean Hall / I Know something 'bout the Blues [0:03:30.33]
05. Metro Blues All Stars / Strom Comin' Thru' [0:04:50.22]
06. Planet Rockers / Tennessee Woman [0:03:30.00]
07. Chip Vandiver / Love ain't never Satisfied [0:02:46.73]
08. Dean Hall / My Milkman was Freddy King [0:03:51.93]
09. Metro Blues All Stars / I would do for you [0:03:01.24]
10. Buddy Flett and the Bluebirds / Blues in a Honkey Tonk Key [0:03:33.53]
11. Johnny Neel / While she's in Love [0:04:20.22]
12. Metro Blues All Stars / Bad Situation [0:05:19.44]
13. Buddy Flett and the Bluebirds / Third House on the left [0:03:20.46]
14. Tim Wagoner and Wild Blue Yonder / My Old Friens the Blues [0:04:04.93]
15. Lost in Detroit / I Want to make Love to you [0:07:15.00]

Exact Audio Copy V0.99 prebeta 4 from 23. January 2008

Отчёт EAC об извлечении, выполненном 10. июня 2010, 18:09

Taxim Records / More Good Whiskey Blues

Дисковод: PLEXTOR DVDR PX-820A Adapter: 3 ID: 1

Режим чтения : Достоверность
Использование точного потока : Да
Отключение кэша аудио : Да
Использование указателей C2 : Нет

Коррекция смещения при чтении : 48
Способность читать области Lead-in и Lead-out : Нет
Заполнение пропущенных сэмплов тишиной : Да
Удаление блоков с тишиной в начале и конце : Нет
При вычислениях CRC использовались нулевые сэмплы : Да
Интерфейс : Встроенный Win32-интерфейс для Win NT/2000

Выходной формат : Внутренние WAV-операции
Формат сэмплов : 44.100 Гц; 16 бит; стерео

TOC извлечённого CD

Трек | Старт | Длительность | Начальный сектор | Конечный сектор
––––––––––––––––––––––––––––––––––-
1 | 0:00.33 | 6:20.12 | 33 | 28544
2 | 6:20.45 | 5:17.00 | 28545 | 52319
3 | 11:37.45 | 4:34.58 | 52320 | 72927
4 | 16:12.28 | 3:30.25 | 72928 | 88702
5 | 19:42.53 | 4:50.17 | 88703 | 110469
6 | 24:32.70 | 3:30.00 | 110470 | 126219
7 | 28:02.70 | 2:46.55 | 126220 | 138724
8 | 30:49.50 | 3:51.70 | 138725 | 156119
9 | 34:41.45 | 3:01.18 | 156120 | 169712
10 | 37:42.63 | 3:33.40 | 169713 | 185727
11 | 41:16.28 | 4:20.17 | 185728 | 205244
12 | 45:36.45 | 5:19.33 | 205245 | 229202
13 | 50:56.03 | 3:20.35 | 229203 | 244237
14 | 54:16.38 | 4:04.70 | 244238 | 262607
15 | 58:21.33 | 7:15.00 | 262608 | 295232

Характеристики диапазона извлечения и сообщения об ошибках

Выбранный диапазон

Имя файла D:\КОЛЛЕКЦИЯ 5\СБОРНИКИ TAXIM\MORE GOOD WHISKEY BLUES\Taxim Records - More Good Whiskey Blues.wav

Пиковый уровень 96.5 %
Качество диапазона 100.0 %
CRC копии A1EEFA37
Копирование… OK

Ошибок не произошло

AccurateRip: сводка

Трек 1 точное извлечение (доверие 2) [65A7D6B4]
Трек 2 точное извлечение (доверие 2) [F09C7E78]
Трек 3 точное извлечение (доверие 2) [BC029D6B]
Трек 4 точное извлечение (доверие 2) [829A830F]
Трек 5 точное извлечение (доверие 2) [64C1022E]
Трек 6 точное извлечение (доверие 1) [8554D1EC]
Трек 7 точное извлечение (доверие 1) [5B8D3778]
Трек 8 точное извлечение (доверие 2) [4154CF2C]
Трек 9 точное извлечение (доверие 2) [41095CAF]
Трек 10 точное извлечение (доверие 1) [7C5499DB]
Трек 11 точное извлечение (доверие 1) [54C7C159]
Трек 12 точное извлечение (доверие 2) [D5DB9168]
Трек 13 точное извлечение (доверие 2) [2FF24C4F]
Трек 14 точное извлечение (доверие 2) [DD5EE8A7]
Трек 15 точное извлечение (доверие 1) [F3247C1A]

Все треки извлечены точно

Конец отчёта



VA - A Collection of Contemporary Blues Songs From The States (1992-1999) (17 CDs)

VA - A Collection of Contemporary Blues Songs: Truckinґ My Blues Away (1993)
EAC Rip | APE (Image+.cue, log) | Cover included | 390 mb
Genre: Blues / Label: Taxim

Tracklist:
01. Will Smokey Logg / El Madrid [0:03:32.49]
02. Pat Mason / Queen Of The Boucherie [0:04:38.50]
03. Cold Blue Steel / The Girl That Radiates [0:02:50.00]
04. Jim Suhler And Monkey Beat / Where Were You When The Lights Went Out? [0:02:50.16]
05. Jim Suhler And Monkey Beat / Doncha Hang Around My Door [0:04:30.10]
06. Will Smokey Logg / That's Where The Money Goes [0:04:35.93]
07. Robert Ealy / Dog Don't Bite [0:04:03.62]
08. Mike Morgan / Well All Right Then [0:03:35.37]
09. Jimmy Spacek & Heavy Traffic / Good Lookin Lady [0:03:01.62]
10. Will Smokey Logg / Credit Didn't Go Through [0:06:07.50]
11. Jack Morgan Band / Honeyman [0:03:38.60]
12. Class Action / Midnight Moon [0:03:12.33]
13. Robert Ealy / Love Me Baby [0:03:37.46]
14. Michael Hardie / Pretenders Blues [0:04:11.53]
15. Will Smokey Logg / Tom Cat [0:03:51.06]
16. Bugs Henderson / Rock Me Baby [0:06:01.66]

Exact Audio Copy V0.99 prebeta 4 from 23. January 2008

Отчёт EAC об извлечении, выполненном 10. июня 2010, 23:31

Various - Talking with the Blues / Truckinґ My Blues Away

Дисковод: PLEXTOR DVDR PX-820A Adapter: 3 ID: 1

Режим чтения : Достоверность
Использование точного потока : Да
Отключение кэша аудио : Да
Использование указателей C2 : Нет

Коррекция смещения при чтении : 48
Способность читать области Lead-in и Lead-out : Нет
Заполнение пропущенных сэмплов тишиной : Да
Удаление блоков с тишиной в начале и конце : Нет
При вычислениях CRC использовались нулевые сэмплы : Да
Интерфейс : Встроенный Win32-интерфейс для Win NT/2000

Выходной формат : Внутренние WAV-операции
Формат сэмплов : 44.100 Гц; 16 бит; стерео

TOC извлечённого CD

Трек | Старт | Длительность | Начальный сектор | Конечный сектор
––––––––––––––––––––––––––––––––––-
1 | 0:00.00 | 3:32.37 | 0 | 15936
2 | 3:32.37 | 4:38.38 | 15937 | 36824
3 | 8:11.00 | 2:50.00 | 36825 | 49574
4 | 11:01.00 | 2:50.12 | 49575 | 62336
5 | 13:51.12 | 4:30.08 | 62337 | 82594
6 | 18:21.20 | 4:35.70 | 82595 | 103289
7 | 22:57.15 | 4:03.47 | 103290 | 121561
8 | 27:00.62 | 3:35.28 | 121562 | 137714
9 | 30:36.15 | 3:01.47 | 137715 | 151336
10 | 33:37.62 | 6:07.38 | 151337 | 178899
11 | 39:45.25 | 3:38.45 | 178900 | 195294
12 | 43:23.70 | 3:12.25 | 195295 | 209719
13 | 46:36.20 | 3:37.35 | 209720 | 226029
14 | 50:13.55 | 4:11.40 | 226030 | 244894
15 | 54:25.20 | 3:51.05 | 244895 | 262224
16 | 58:16.25 | 6:01.50 | 262225 | 289349

Характеристики диапазона извлечения и сообщения об ошибках

Выбранный диапазон

Имя файла D:\КОЛЛЕКЦИЯ 5\СБОРНИКИ TAXIM\TRUCKIN' MY BLUES AWAY\Various - Talking with the Blues - Truckinґ My Blues Away.wav

Пиковый уровень 83.4 %
Качество диапазона 99.9 %
CRC копии 9DE2BC8E
Копирование… OK

Ошибок не произошло

AccurateRip: сводка

Трек 1 точность не определена (достоверность 1) [7553F602], AccurateRip вернул [0FEFD7F5]
Трек 2 точность не определена (достоверность 1) [E93A76F3], AccurateRip вернул [70E2132C]
Трек 3 точность не определена (достоверность 1) [EA7F1AF3], AccurateRip вернул [88CD3BA2]
Трек 4 точность не определена (достоверность 1) [8D3AD7BE], AccurateRip вернул [AAC3674E]
Трек 5 точность не определена (достоверность 1) [40322F81], AccurateRip вернул [78907E2F]
Трек 6 точность не определена (достоверность 1) [A50CD8EE], AccurateRip вернул [448A598E]
Трек 7 точность не определена (достоверность 1) [3CF0B328], AccurateRip вернул [F68AD5A5]
Трек 8 точность не определена (достоверность 1) [60F1C602], AccurateRip вернул [03213703]
Трек 9 точность не определена (достоверность 1) [18454ACC], AccurateRip вернул [B7631279]
Трек 10 точность не определена (достоверность 1) [87E27A0E], AccurateRip вернул [55769E87]
Трек 11 точность не определена (достоверность 1) [46A98D98], AccurateRip вернул [E88F238A]
Трек 12 точность не определена (достоверность 1) [ACAD5A34], AccurateRip вернул [666BDCFD]
Трек 13 точность не определена (достоверность 1) [05896C49], AccurateRip вернул [31EFE147]
Трек 14 точность не определена (достоверность 1) [0AE829ED], AccurateRip вернул [46877879]
Трек 15 точность не определена (достоверность 1) [1A2DA3FF], AccurateRip вернул [F489D08D]
Трек 16 точность не определена (достоверность 1) [8F3AE598], AccurateRip вернул [79FFD948]

Ни один трек не прошёл проверки на точность
В вашей базе может быть иной вариант штамповки диска

Конец отчёта



VA - A Collection of Contemporary Blues Songs From The States (1992-1999) (17 CDs)

VA - A Collection of Contemporary Blues Songs: Even More Good Whiskey Blues (1995)
EAC Rip | APE (Image+.cue, log) | 01:04:28 min | Cover included | 368 mb
Genre: Blues / Label: Taxim

Tracklist:
01. KENNY LEE - Blues Party [0:04:39.53]
02. BIRD DOGS- Bye Bye Baby [0:05:40.66]
03. ROCKY SHELTON - Twist of Fate [0:04:33.86]
04. MARY-ANN BRADON - It's a Dirty Job [0:03:26.29]
05. THE NASHVILLE KATZ - Snakin' [0:03:47.20]
06. BLUE FLAMES - One Step Closer to the Blues [0:04:30.17]
07. FRED JAMES - Everybody's Gettin' Them Some [0:03:57.33]
08. KENNY LEE - Country Boy [0:03:55.86]
09. BILLY C. FARLOW - Trouble's Come to the Delta [0:06:37.66]
10. JIMMY MARKHAM - You're So Fine [0:02:51.26]
11. ROCKY SHELTON - Strength to Stand Alone [0:03:27.86]
12. BILLY EARL McLELLAND - Highway Blues [0:03:07.62]
13. ZIP GIBSON - Snowing in Memphis [0:07:03.24]
14. BILLY EARL McLELLAND - Tall Girl in a Short Dress [0:02:50.46]
15. GREG "FINGERS" TAYLOR - The Battle is Over [0:04:06.49]

Exact Audio Copy V0.99 prebeta 4 from 23. January 2008

Отчёт EAC об извлечении, выполненном 10. июня 2010, 20:29

Taxim / Even More good whiskey blues

Дисковод: PLEXTOR DVDR PX-820A Adapter: 3 ID: 1

Режим чтения : Достоверность
Использование точного потока : Да
Отключение кэша аудио : Да
Использование указателей C2 : Нет

Коррекция смещения при чтении : 48
Способность читать области Lead-in и Lead-out : Нет
Заполнение пропущенных сэмплов тишиной : Да
Удаление блоков с тишиной в начале и конце : Нет
При вычислениях CRC использовались нулевые сэмплы : Да
Интерфейс : Встроенный Win32-интерфейс для Win NT/2000

Выходной формат : Внутренние WAV-операции
Формат сэмплов : 44.100 Гц; 16 бит; стерео

TOC извлечённого CD

Трек | Старт | Длительность | Начальный сектор | Конечный сектор
––––––––––––––––––––––––––––––––––-
1 | 0:00.00 | 4:39.40 | 0 | 20964
2 | 4:39.40 | 5:40.50 | 20965 | 46514
3 | 10:20.15 | 4:33.65 | 46515 | 67054
4 | 14:54.05 | 3:26.22 | 67055 | 82526
5 | 18:20.27 | 3:47.15 | 82527 | 99566
6 | 22:07.42 | 4:30.13 | 99567 | 119829
7 | 26:37.55 | 3:57.25 | 119830 | 137629
8 | 30:35.05 | 3:55.65 | 137630 | 155319
9 | 34:30.70 | 6:37.50 | 155320 | 185144
10 | 41:08.45 | 2:51.20 | 185145 | 197989
11 | 43:59.65 | 3:27.65 | 197990 | 213579
12 | 47:27.55 | 3:07.47 | 213580 | 227651
13 | 50:35.27 | 7:03.18 | 227652 | 259394
14 | 57:38.45 | 2:50.35 | 259395 | 272179
15 | 60:29.05 | 4:06.37 | 272180 | 290666

Характеристики диапазона извлечения и сообщения об ошибках

Выбранный диапазон

Имя файла D:\КОЛЛЕКЦИЯ 5\СБОРНИКИ TAXIM\EVEN MORE GOOD WHISKEY BLUES\Taxim - Even More good whiskey blues.wav

Пиковый уровень 100.0 %
Качество диапазона 100.0 %
CRC копии 232772E7
Копирование… OK

Ошибок не произошло

AccurateRip: сводка

Трек 1 точное извлечение (доверие 1) [9B1AEEEC]
Трек 2 точное извлечение (доверие 1) [EC199E0A]
Трек 3 точное извлечение (доверие 1) [5F2253E7]
Трек 4 точное извлечение (доверие 1) [6B69E727]
Трек 5 точное извлечение (доверие 1) [4EF905BF]
Трек 6 точное извлечение (доверие 1) [C15F9E5E]
Трек 7 точное извлечение (доверие 1) [D30B9016]
Трек 8 точное извлечение (доверие 1) [24659570]
Трек 9 точное извлечение (доверие 1) [D5722505]
Трек 10 точное извлечение (доверие 1) [814484AF]
Трек 11 точное извлечение (доверие 1) [DB520017]
Трек 12 точное извлечение (доверие 1) [79800276]
Трек 13 точное извлечение (доверие 1) [4CD9E5A1]
Трек 14 точное извлечение (доверие 1) [DEEE08D0]
Трек 15 точное извлечение (доверие 1) [0DB2354A]

Все треки извлечены точно

Конец отчёта



VA - A Collection of Contemporary Blues Songs From The States (1992-1999) (17 CDs)

VA - A Collection of Contemporary Blues Songs: A Cold Shot Good Whiskey Blues (1996)
EAC Rip | APE (Image+.cue, log) | Cover included | 342 mb
Genre: Blues, Louisiana Blues / Label: Taxim

Tracklist:
01. Steve Bassett - Poor Of Me
02. Vickie Carrico - Let Love Make It Right
03. Chip Vandiver - Head On Collision
04. Son Phillips And The Hounds - April Fool
05. Blue Rain - Backslidin'
06. Mississippi Millie McLaine - You Pick That Thing Baby
07. Big Al & The Heavyweighter - Zydecoco
08. Vickie Carrico - Hello Darkness
09. Richard Waters with Larry Burton - Please Set A Date
10. Tim Gonzales - Summertime
11. Mississippi Millie McLaine - Retribution
12. Chick French - Lowdown & Dirty
13. Big Dawgs - One More Train
14. Bobby Little - Tears I Cried
15. Steve Bassett - Jesus Just Left Chicago

Exact Audio Copy V0.99 prebeta 4 from 23. January 2008

Отчёт EAC об извлечении, выполненном 11. июня 2010, 9:40

Taxim / A COLD SHOT OF GOOD WHISKEY BLUES

Дисковод: PLEXTOR DVDR PX-820A Adapter: 3 ID: 1

Режим чтения : Достоверность
Использование точного потока : Да
Отключение кэша аудио : Да
Использование указателей C2 : Нет

Коррекция смещения при чтении : 48
Способность читать области Lead-in и Lead-out : Нет
Заполнение пропущенных сэмплов тишиной : Да
Удаление блоков с тишиной в начале и конце : Нет
При вычислениях CRC использовались нулевые сэмплы : Да
Интерфейс : Встроенный Win32-интерфейс для Win NT/2000

Выходной формат : Внутренние WAV-операции
Формат сэмплов : 44.100 Гц; 16 бит; стерео

TOC извлечённого CD

Трек | Старт | Длительность | Начальный сектор | Конечный сектор
––––––––––––––––––––––––––––––––––-
1 | 0:00.00 | 4:14.45 | 0 | 19094
2 | 4:14.45 | 5:10.37 | 19095 | 42381
3 | 9:25.07 | 2:42.30 | 42382 | 54561
4 | 12:07.37 | 6:14.45 | 54562 | 82656
5 | 18:22.07 | 3:49.28 | 82657 | 99859
6 | 22:11.35 | 4:25.22 | 99860 | 119756
7 | 26:36.57 | 2:47.00 | 119757 | 132281
8 | 29:23.57 | 4:00.15 | 132282 | 150296
9 | 33:23.72 | 4:10.28 | 150297 | 169074
10 | 37:34.25 | 4:14.27 | 169075 | 188151
11 | 41:48.52 | 7:02.70 | 188152 | 219871
12 | 48:51.47 | 3:21.73 | 219872 | 235019
13 | 52:13.45 | 3:28.02 | 235020 | 250621
14 | 55:41.47 | 4:34.50 | 250622 | 271221
15 | 60:16.22 | 4:34.33 | 271222 | 291804

Характеристики диапазона извлечения и сообщения об ошибках

Выбранный диапазон

Имя файла D:\КОЛЛЕКЦИЯ 5\СБОРНИКИ TAXIM\A COLD SHOT GOOD WHISKEY BLUES\Taxim - A COLD SHOT OF GOOD WHISKEY BLUES.wav

Пиковый уровень 100.0 %
Качество диапазона 99.9 %
CRC копии 2505A1B4
Копирование… OK

Ошибок не произошло

AccurateRip: сводка

Трек 1 нет в базе данных
Трек 2 нет в базе данных
Трек 3 нет в базе данных
Трек 4 нет в базе данных
Трек 5 нет в базе данных
Трек 6 нет в базе данных
Трек 7 нет в базе данных
Трек 8 нет в базе данных
Трек 9 нет в базе данных
Трек 10 нет в базе данных
Трек 11 нет в базе данных
Трек 12 нет в базе данных
Трек 13 нет в базе данных
Трек 14 нет в базе данных
Трек 15 нет в базе данных

Ни одного трека нет в базе AccurateRip

Конец отчёта



VA - A Collection of Contemporary Blues Songs From The States (1992-1999) (17 CDs)

VA - A Collection of Contemporary Blues Songs: Desaster City Blues (1996)
EAC Rip | APE (Image+.cue, log) | 01:13:10 min | Cover included | 415 mb
Genre: Blues / Label: Taxim

Tracklist:
01. MacLeod, Doug / Come To Find [0:04:12.02]
02. Lucas, Robert / Blues Man From L. A. [0:03:44.70]
03. Evans, Terry / Walking In The Same Tracks [0:04:21.69]
04. Red Eye Blues / Just Another Fool [0:03:46.73]
05. Nicolaisen, Jaime Troy / Is This What It Takes [0:03:37.40]
06. Ball, Tom & Kenny Sultan / Roll Of The Tumblin' Dice [0:04:09.64]
07. Smith, Chris Hammer / Born In Chicago [0:04:03.73]
08. Hula Monsters / She Don't Mind [0:05:31.00]
09. Evans, Terry / Down In Mississippi [0:07:44.00]
10. Lucas, Robert / Talk To Me [0:03:56.16]
11. Smith, Chris 'Hammer' / You And Me [0:06:47.90]
12. Red Eye Blues / Crescent Smile [0:04:04.46]
13. Ball, Tom / Wing And A Prayer [0:02:48.00]
14. Red Eye Blues / Keep On Tryin [0:05:44.29]
15. Bare, Jon / Don't Let The Sun Pass You [0:05:21.84]
16. McLeod, Doug / When I Left Missouri [0:03:23.40]

Exact Audio Copy V0.99 prebeta 4 from 23. January 2008

Отчёт EAC об извлечении, выполненном 11. июня 2010, 9:17

Various / Desaster City Blues

Дисковод: PLEXTOR DVDR PX-820A Adapter: 3 ID: 1

Режим чтения : Достоверность
Использование точного потока : Да
Отключение кэша аудио : Да
Использование указателей C2 : Нет

Коррекция смещения при чтении : 48
Способность читать области Lead-in и Lead-out : Нет
Заполнение пропущенных сэмплов тишиной : Да
Удаление блоков с тишиной в начале и конце : Нет
При вычислениях CRC использовались нулевые сэмплы : Да
Интерфейс : Встроенный Win32-интерфейс для Win NT/2000

Выходной формат : Внутренние WAV-операции
Формат сэмплов : 44.100 Гц; 16 бит; стерео

TOC извлечённого CD

Трек | Старт | Длительность | Начальный сектор | Конечный сектор
––––––––––––––––––––––––––––––––––-
1 | 0:00.00 | 4:12.02 | 0 | 18901
2 | 4:12.02 | 3:44.53 | 18902 | 35754
3 | 7:56.55 | 4:21.52 | 35755 | 55381
4 | 12:18.32 | 3:46.55 | 55382 | 72386
5 | 16:05.12 | 3:37.30 | 72387 | 88691
6 | 19:42.42 | 4:09.48 | 88692 | 107414
7 | 23:52.15 | 4:03.55 | 107415 | 125694
8 | 27:55.70 | 5:31.00 | 125695 | 150519
9 | 33:26.70 | 7:44.00 | 150520 | 185319
10 | 41:10.70 | 3:56.12 | 185320 | 203031
11 | 45:07.07 | 6:47.68 | 203032 | 233624
12 | 51:55.00 | 4:04.35 | 233625 | 251959
13 | 55:59.35 | 2:48.00 | 251960 | 264559
14 | 58:47.35 | 5:44.22 | 264560 | 290381
15 | 64:31.57 | 5:21.63 | 290382 | 314519
16 | 69:53.45 | 3:23.30 | 314520 | 329774

Характеристики диапазона извлечения и сообщения об ошибках

Выбранный диапазон

Имя файла D:\КОЛЛЕКЦИЯ 5\СБОРНИКИ TAXIM\DESASTER CITY BLUES\Various - Desaster City Blues.wav

Пиковый уровень 99.4 %
Качество диапазона 100.0 %
CRC копии 03552E1B
Копирование… OK

Ошибок не произошло

AccurateRip: сводка

Трек 1 нет в базе данных
Трек 2 нет в базе данных
Трек 3 нет в базе данных
Трек 4 нет в базе данных
Трек 5 нет в базе данных
Трек 6 нет в базе данных
Трек 7 нет в базе данных
Трек 8 нет в базе данных
Трек 9 нет в базе данных
Трек 10 нет в базе данных
Трек 11 нет в базе данных
Трек 12 нет в базе данных
Трек 13 нет в базе данных
Трек 14 нет в базе данных
Трек 15 нет в базе данных
Трек 16 нет в базе данных

Ни одного трека нет в базе AccurateRip

Конец отчёта



VA - A Collection of Contemporary Blues Songs From The States (1992-1999) (17 CDs)

VA - A Collection of Contemporary Blues Songs: Even More Bay Area Blues (1996)
EAC Rip | APE (Image+.cue, log) | Cover included | 366 mb
Genre: Blues / Label: Taxim

Tracklist:
01. Jimmy Dillon - One Wrong Move [0:04:42.14]
02. Jack king And Way Fat - Rich Live [0:03:52.00]
03. George Whitsell - Warm Heart [0:04:48.69]
04. Paris Slim - Mollyґs Backjard Blues [0:03:40.80]
05. Gary King - I Ainґt No Doctor [0:04:43.33]
06. Rhythmtown - Magnaton [0:03:09.60]
07. Goodman Murphy Band - Same Of Blues [0:05:24.46]
08. Greg Douglas - Dirtleg Blues [0:04:56.50]
09. Richi Ray - Cup Of Coffee [0:03:12.49]
10. Dan Hyes - She Says She Will [0:02:27.44]
11. Rhythm Sheiks - What I Know Now [0:04:00.73]
12. Pete Sears & Rich Kirch - Deuces Wild [0:04:08.16]
13. Little Jonny & The Giants - Stranger Blues [0:05:18.46]
14. Terry Haggerty - Red House [0:04:44.84]
15. trichotic - Something Is Wrong [0:04:43.89]

Exact Audio Copy V0.99 prebeta 4 from 23. January 2008

Отчёт EAC об извлечении, выполненном 10. июня 2010, 16:21

Various Artists / Even More Bay Area Blues

Дисковод: PLEXTOR DVDR PX-820A Adapter: 3 ID: 1

Режим чтения : Достоверность
Использование точного потока : Да
Отключение кэша аудио : Да
Использование указателей C2 : Нет

Коррекция смещения при чтении : 48
Способность читать области Lead-in и Lead-out : Нет
Заполнение пропущенных сэмплов тишиной : Да
Удаление блоков с тишиной в начале и конце : Нет
При вычислениях CRC использовались нулевые сэмплы : Да
Интерфейс : Встроенный Win32-интерфейс для Win NT/2000

Выходной формат : Внутренние WAV-операции
Формат сэмплов : 44.100 Гц; 16 бит; стерео

TOC извлечённого CD

Трек | Старт | Длительность | Начальный сектор | Конечный сектор
––––––––––––––––––––––––––––––––––-
1 | 0:00.00 | 4:42.11 | 0 | 21160
2 | 4:42.11 | 3:52.00 | 21161 | 38560
3 | 8:34.11 | 4:48.52 | 38561 | 60212
4 | 13:22.63 | 3:40.60 | 60213 | 76772
5 | 17:03.48 | 4:43.25 | 76773 | 98022
6 | 21:46.73 | 3:09.45 | 98023 | 112242
7 | 24:56.43 | 5:24.35 | 112243 | 136577
8 | 30:21.03 | 4:56.38 | 136578 | 158815
9 | 35:17.41 | 3:12.37 | 158816 | 173252
10 | 38:30.03 | 2:27.33 | 173253 | 184310
11 | 40:57.36 | 4:00.55 | 184311 | 202365
12 | 44:58.16 | 4:08.12 | 202366 | 220977
13 | 49:06.28 | 5:18.35 | 220978 | 244862
14 | 54:24.63 | 4:44.63 | 244863 | 266225
15 | 59:09.51 | 4:43.67 | 266226 | 287517

Характеристики диапазона извлечения и сообщения об ошибках

Выбранный диапазон

Имя файла D:\КОЛЛЕКЦИЯ 5\СБОРНИКИ TAXIM\EVEN MORE BAY AREA BLUES\Various Artists - Even More Bay Area Blues.wav

Пиковый уровень 98.8 %
Качество диапазона 99.9 %
CRC копии 6A25A1A1
Копирование… OK

Ошибок не произошло

AccurateRip: сводка

Трек 1 нет в базе данных
Трек 2 нет в базе данных
Трек 3 нет в базе данных
Трек 4 нет в базе данных
Трек 5 нет в базе данных
Трек 6 нет в базе данных
Трек 7 нет в базе данных
Трек 8 нет в базе данных
Трек 9 нет в базе данных
Трек 10 нет в базе данных
Трек 11 нет в базе данных
Трек 12 нет в базе данных
Трек 13 нет в базе данных
Трек 14 нет в базе данных
Трек 15 нет в базе данных

Ни одного трека нет в базе AccurateRip

Конец отчёта



VA - A Collection of Contemporary Blues Songs From The States (1992-1999) (17 CDs)

VA - A Collection of Contemporary Blues Songs: Garden State Blues (1992)
EAC Rip | APE (Image+.cue, log) | Cover included | 451 mb
Genre: Blues / Label: Taxim

Tracklist:
01. Rhett Tyler & Earl Warning / Walk Dat Walk [0:05:21.13]
02. Sonny Kenn Band / Fade To Black [0:05:54.36]
03. B. B. And The Stingers / I Ainґt Perfect But Iґm Close [0:03:41.00]
04. Jhonny Charles / You Move Me [0:03:29.46]
05. John Bloys & The Boogie Stew / Iґm Free [0:04:54.57]
06. Rhett Tyler Earl Warning / Sam [0:05:18.89]
07. Nasty Ned & he famous Chilli Dog / Just Like Life [0:06:20.10]
08. Mike Dugan & The Blues Mission / Blue Eternity [0:06:09.36]
09. Bluesmann Whillie & The South Street Runners / The Blues Was Born In The U.S.A. [0:03:46.90]
10. Jhon Buschnell / One Night Ainґt Enough [0:04:41.66]
11. John Buschnell / Kitchen Blues [0:04:37.40]
12. Sonny Kenn Band / Homicide Blues [0:05:29.56]
13. Johnny Charles / Texas Blues [0:03:38.73]
14. Billy Hector / Someday Baby [0:06:41.46]

Exact Audio Copy V0.99 prebeta 4 from 23. January 2008

Отчёт EAC об извлечении, выполненном 11. июня 2010, 16:23

Various Artists / Garden State Blues

Дисковод: PLEXTOR DVDR PX-820A Adapter: 3 ID: 1

Режим чтения : Достоверность
Использование точного потока : Да
Отключение кэша аудио : Да
Использование указателей C2 : Нет

Коррекция смещения при чтении : 48
Способность читать области Lead-in и Lead-out : Нет
Заполнение пропущенных сэмплов тишиной : Да
Удаление блоков с тишиной в начале и конце : Нет
При вычислениях CRC использовались нулевые сэмплы : Да
Интерфейс : Встроенный Win32-интерфейс для Win NT/2000

Выходной формат : Внутренние WAV-операции
Формат сэмплов : 44.100 Гц; 16 бит; стерео

TOC извлечённого CD

Трек | Старт | Длительность | Начальный сектор | Конечный сектор
––––––––––––––––––––––––––––––––––-
1 | 0:00.00 | 5:21.10 | 0 | 24084
2 | 5:21.10 | 5:54.27 | 24085 | 50661
3 | 11:15.37 | 3:41.00 | 50662 | 67236
4 | 14:56.37 | 3:29.35 | 67237 | 82946
5 | 18:25.72 | 4:54.43 | 82947 | 105039
6 | 23:20.40 | 5:18.67 | 105040 | 128956
7 | 28:39.32 | 6:20.08 | 128957 | 157464
8 | 34:59.40 | 6:09.27 | 157465 | 185166
9 | 41:08.67 | 3:46.68 | 185167 | 202184
10 | 44:55.60 | 4:41.50 | 202185 | 223309
11 | 49:37.35 | 4:37.30 | 223310 | 244114
12 | 54:14.65 | 5:29.42 | 244115 | 268831
13 | 59:44.32 | 3:38.55 | 268832 | 285236
14 | 63:23.12 | 6:41.35 | 285237 | 315346

Характеристики диапазона извлечения и сообщения об ошибках

Выбранный диапазон

Имя файла D:\КОЛЛЕКЦИЯ 5\СБОРНИКИ TAXIM\GARDEN STATE BLUES\Various Artists - Garden State Blues.wav

Пиковый уровень 100.0 %
Качество диапазона 99.9 %
CRC копии CD012C2F
Копирование… OK

Ошибок не произошло

AccurateRip: сводка

Трек 1 нет в базе данных
Трек 2 нет в базе данных
Трек 3 нет в базе данных
Трек 4 нет в базе данных
Трек 5 нет в базе данных
Трек 6 нет в базе данных
Трек 7 нет в базе данных
Трек 8 нет в базе данных
Трек 9 нет в базе данных
Трек 10 нет в базе данных
Трек 11 нет в базе данных
Трек 12 нет в базе данных
Трек 13 нет в базе данных
Трек 14 нет в базе данных

Ни одного трека нет в базе AccurateRip

Конец отчёта



VA - A Collection of Contemporary Blues Songs From The States (1992-1999) (17 CDs)

VA - A Collection of Contemporary Blues Songs: More Bay Area Blues (1996)
EAC Rip | APE (Image+.cue, log) | 00:59:45 min | Cover included | 341 mb
Genre: Blues / Label: Taxim

Tracklist:
01. Garry Smith Blues Band - I Can't Seem To Shake These Blues [0:04:39.53]
02. Kenny "Blue" Ray - Squeezin [0:02:46.82]
03. Nick Gravenites - Hard Thing [0:02:55.06]
04. Wendy DeWitt And Blue Saloon - Hard Times [0:03:32.70]
05. John "Bradway" Tucker & The Broadway Band - Good Woman [0:06:20.29]
06. Harvey Mandel - Million Dollar Feeling [0:05:29.64]
07. Henry Oden - Shade Tree Mechanic [0:03:04.09]
08. Lisa Kindred & Chris Goddard - Minglewood Blues [0:03:43.93]
09. Mike Henderson Blues Band - Homesick [0:02:11.84]
10. Chuck Vincent & Shuffle - Boogie 'Til We All Fall Down [0:05:49.76]
11. Bluefeans - Somebody Told Me [0:03:03.06]
12. Mike Wilhelm - Blues Medley Take I [0:06:05.90]
13. Doug Jay - Watch Your Step [0:03:07.33]
14. Stu Blank - Dimples [0:04:10.82]
15. Mark Naftalin - Treehouse Blues [0:02:52.24]

Exact Audio Copy V0.99 prebeta 4 from 23. January 2008

Отчёт EAC об извлечении, выполненном 11. июня 2010, 15:44

Taxim Records / More Bay Area Blues

Дисковод: PLEXTOR DVDR PX-820A Adapter: 3 ID: 1

Режим чтения : Достоверность
Использование точного потока : Да
Отключение кэша аудио : Да
Использование указателей C2 : Нет

Коррекция смещения при чтении : 48
Способность читать области Lead-in и Lead-out : Нет
Заполнение пропущенных сэмплов тишиной : Да
Удаление блоков с тишиной в начале и конце : Нет
При вычислениях CRC использовались нулевые сэмплы : Да
Интерфейс : Встроенный Win32-интерфейс для Win NT/2000

Выходной формат : Внутренние WAV-операции
Формат сэмплов : 44.100 Гц; 16 бит; стерео

TOC извлечённого CD

Трек | Старт | Длительность | Начальный сектор | Конечный сектор
––––––––––––––––––––––––––––––––––-
1 | 0:00.00 | 4:39.40 | 0 | 20964
2 | 4:39.40 | 2:46.62 | 20965 | 33476
3 | 7:26.27 | 2:55.05 | 33477 | 46606
4 | 10:21.32 | 3:32.53 | 46607 | 62559
5 | 13:54.10 | 6:20.22 | 62560 | 91081
6 | 20:14.32 | 5:29.48 | 91082 | 115804
7 | 25:44.05 | 3:04.07 | 115805 | 129611
8 | 28:48.12 | 3:43.70 | 129612 | 146406
9 | 32:32.07 | 2:11.63 | 146407 | 156294
10 | 34:43.70 | 5:49.57 | 156295 | 182526
11 | 40:33.52 | 3:03.05 | 182527 | 196256
12 | 43:36.57 | 6:05.68 | 196257 | 223699
13 | 49:42.50 | 3:07.25 | 223700 | 237749
14 | 52:50.00 | 4:10.62 | 237750 | 256561
15 | 57:00.62 | 2:52.18 | 256562 | 269479

Характеристики диапазона извлечения и сообщения об ошибках

Выбранный диапазон

Имя файла D:\КОЛЛЕКЦИЯ 5\СБОРНИКИ TAXIM\MORE BAY AREA BLUES\Taxim Records - More Bay Area Blues.wav

Пиковый уровень 100.0 %
Качество диапазона 99.9 %
CRC копии 29F217EA
Копирование… OK

Ошибок не произошло

AccurateRip: сводка

Трек 1 нет в базе данных
Трек 2 нет в базе данных
Трек 3 нет в базе данных
Трек 4 нет в базе данных
Трек 5 нет в базе данных
Трек 6 нет в базе данных
Трек 7 нет в базе данных
Трек 8 нет в базе данных
Трек 9 нет в базе данных
Трек 10 нет в базе данных
Трек 11 нет в базе данных
Трек 12 нет в базе данных
Трек 13 нет в базе данных
Трек 14 нет в базе данных
Трек 15 нет в базе данных

Ни одного трека нет в базе AccurateRip

Конец отчёта



VA - A Collection of Contemporary Blues Songs From The States (1992-1999) (17 CDs)

VA - A Collection of Contemporary Blues Songs: Sunshine State Blues (1996)
EAC Rip | APE (Image+.cue, log) | 01:12:50 min | Cover included | 442 mb
Genre: Blues / Label: Taxim

Tracklist:
01. T.C. Carr and The Catch - Woman's Lookin' For A Man [0:05:25.66]
02. Backtrack Bluesband - Boogie Shack [0:05:25.26]
03. Smokehouse - Cadillac In Swamp [0:06:01.60]
04. James Peterson - Jacksonville [0:02:57.96]
05. Floyd Miles & Friends - I Been Missing You [0:03:41.24]
06. Midnight Creepers - Luberta [0:03:42.26]
07. Mark Hodgson Band - Voodoo Chile (Slight Return) [0:06:56.42]
08. Smokehouse - Peepin' Through The Knothole [0:03:01.40]
09. Pat Ramsey - King Of Fools [0:05:35.53]
10. Dr. Hector & The Groove Injectors - Pickin' The Blues [0:04:27.93]
11. Pat Ramsey - Allergic To Work [0:03:34.90]
12. Floyd Miles & Friends - Cold, Cold World [0:03:49.42]
13. Bill Wharton & The Ingredients - Swamp Boogie [0:03:38.97]
14. Dr. Hector & The Groove Injectors - Risky Buisiness [0:02:32.93]
15. Mark Hodgson Band - Starless Night [0:07:02.82]
16. Tony Coleman - Talkin' 'Bout The Blues [0:05:05.26]

Exact Audio Copy V0.99 prebeta 4 from 23. January 2008

Отчёт EAC об извлечении, выполненном 11. июня 2010, 0:01

Taxim Records / Sunshine State Blues

Дисковод: PLEXTOR DVDR PX-820A Adapter: 3 ID: 1

Режим чтения : Достоверность
Использование точного потока : Да
Отключение кэша аудио : Да
Использование указателей C2 : Нет

Коррекция смещения при чтении : 48
Способность читать области Lead-in и Lead-out : Нет
Заполнение пропущенных сэмплов тишиной : Да
Удаление блоков с тишиной в начале и конце : Нет
При вычислениях CRC использовались нулевые сэмплы : Да
Интерфейс : Встроенный Win32-интерфейс для Win NT/2000

Выходной формат : Внутренние WAV-операции
Формат сэмплов : 44.100 Гц; 16 бит; стерео

TOC извлечённого CD

Трек | Старт | Длительность | Начальный сектор | Конечный сектор
––––––––––––––––––––––––––––––––––-
1 | 0:00.00 | 5:25.50 | 0 | 24424
2 | 5:25.50 | 5:25.20 | 24425 | 48819
3 | 10:50.70 | 6:01.45 | 48820 | 75939
4 | 16:52.40 | 2:57.72 | 75940 | 89286
5 | 19:50.37 | 3:41.18 | 89287 | 105879
6 | 23:31.55 | 3:42.20 | 105880 | 122549
7 | 27:14.00 | 6:56.32 | 122550 | 153781
8 | 34:10.32 | 3:01.30 | 153782 | 167386
9 | 37:11.62 | 5:35.40 | 167387 | 192551
10 | 42:47.27 | 4:27.70 | 192552 | 212646
11 | 47:15.22 | 3:34.68 | 212647 | 228764
12 | 50:50.15 | 3:49.32 | 228765 | 245971
13 | 54:39.47 | 3:38.73 | 245972 | 262394
14 | 58:18.45 | 2:32.70 | 262395 | 273864
15 | 60:51.40 | 7:02.62 | 273865 | 305576
16 | 67:54.27 | 5:05.20 | 305577 | 328471

Характеристики диапазона извлечения и сообщения об ошибках

Выбранный диапазон

Имя файла D:\КОЛЛЕКЦИЯ 5\СБОРНИКИ TAXIM\SUNSHINE STATE BLUES\Taxim Records - Sunshine State Blues.wav

Пиковый уровень 100.0 %
Качество диапазона 99.9 %
CRC копии 5445FF40
Копирование… OK

Ошибок не произошло

AccurateRip: сводка

Трек 1 точное извлечение (доверие 1) [65AD1E7E]
Трек 2 точное извлечение (доверие 1) [B8E7CECA]
Трек 3 точное извлечение (доверие 1) [66127B03]
Трек 4 точное извлечение (доверие 1) [95E1A640]
Трек 5 точное извлечение (доверие 1) [D5D6457A]
Трек 6 точное извлечение (доверие 1) [D47905D5]
Трек 7 точное извлечение (доверие 1) [ADB29073]
Трек 8 точное извлечение (доверие 1) [0654EC1E]
Трек 9 точное извлечение (доверие 1) [A83C6443]
Трек 10 точное извлечение (доверие 1) [5CE2736F]
Трек 11 точное извлечение (доверие 1) [9E188CDC]
Трек 12 точное извлечение (доверие 1) [C9B29975]
Трек 13 точное извлечение (доверие 1) [B925832B]
Трек 14 точное извлечение (доверие 1) [8DF13AFA]
Трек 15 точное извлечение (доверие 1) [5A64D0DE]
Трек 16 точное извлечение (доверие 1) [36E5C30D]

Все треки извлечены точно

Конец отчёта



VA - A Collection of Contemporary Blues Songs From The States (1992-1999) (17 CDs)

VA - A Collection of Contemporary Blues Songs: Bay Area Blues (1996)
EAC Rip | APE (Image+.cue, log) | Cover included | 405 mb
Genre: Blues / Label: Taxim

Tracklist:
01. Kent Earl Housman / Margaritha Drive [0:03:27.93]
02. Sy Klopps Blues Band / Steppin' Stone [0:03:02.60]
03. Steve Gannon / Too Through With You [0:04:34.76]
04. Ron Thompson / Pin Eyed Woman [0:06:34.93]
05. Jeff Jolly / Long Distance Love [0:04:23.24]
06. Zero / Devils's Dick Blues [0:05:37.00]
07. Lisa Kindred & Chris Goddard / Train [0:04:38.86]
08. Jerry Miller Band / Now I See [0:07:17.20]
09. Wendy Dewitt and Blue Saloon / Gypsy Good Time [0:03:53.80]
10. Chriss Cobb Band / Bad Brain [0:06:09.86]
11. David Denny / Without You [0:05:13.82]
12. Vipers / Mailbox Blues [0:03:32.80]
13. Michael Quinn / The Hard Way [0:04:46.60]
14. Annie Sampson / Big Fish [0:03:57.86]
15. Bobbie Webb / I'll Play The Blues For You [0:05:05.37]

Exact Audio Copy V0.99 prebeta 4 from 23. January 2008

Отчёт EAC об извлечении, выполненном 10. июня 2010, 18:47

V.A. / Bay Area Blues

Дисковод: PLEXTOR DVDR PX-820A Adapter: 3 ID: 1

Режим чтения : Достоверность
Использование точного потока : Да
Отключение кэша аудио : Да
Использование указателей C2 : Нет

Коррекция смещения при чтении : 48
Способность читать области Lead-in и Lead-out : Нет
Заполнение пропущенных сэмплов тишиной : Да
Удаление блоков с тишиной в начале и конце : Нет
При вычислениях CRC использовались нулевые сэмплы : Да
Интерфейс : Встроенный Win32-интерфейс для Win NT/2000

Выходной формат : Внутренние WAV-операции
Формат сэмплов : 44.100 Гц; 16 бит; стерео

TOC извлечённого CD

Трек | Старт | Длительность | Начальный сектор | Конечный сектор
––––––––––––––––––––––––––––––––––-
1 | 0:00.00 | 3:27.70 | 0 | 15594
2 | 3:27.70 | 3:02.45 | 15595 | 29289
3 | 6:30.40 | 4:34.57 | 29290 | 49896
4 | 11:05.22 | 6:34.70 | 49897 | 79516
5 | 17:40.17 | 4:23.18 | 79517 | 99259
6 | 22:03.35 | 5:37.00 | 99260 | 124534
7 | 27:40.35 | 4:38.65 | 124535 | 145449
8 | 32:19.25 | 7:17.15 | 145450 | 178239
9 | 39:36.40 | 3:53.60 | 178240 | 195774
10 | 43:30.25 | 6:09.65 | 195775 | 223514
11 | 49:40.15 | 5:13.62 | 223515 | 247051
12 | 54:54.02 | 3:32.60 | 247052 | 263011
13 | 58:26.62 | 4:46.45 | 263012 | 284506
14 | 63:13.32 | 3:57.65 | 284507 | 302346
15 | 67:11.22 | 5:05.28 | 302347 | 325249

Характеристики диапазона извлечения и сообщения об ошибках

Выбранный диапазон

Имя файла D:\КОЛЛЕКЦИЯ 5\СБОРНИКИ TAXIM\BAY AREA BLUES\V.A. - Bay Area Blues.wav

Пиковый уровень 96.4 %
Качество диапазона 100.0 %
CRC копии B609A1EE
Копирование… OK

Ошибок не произошло

AccurateRip: сводка

Трек 1 нет в базе данных
Трек 2 нет в базе данных
Трек 3 нет в базе данных
Трек 4 нет в базе данных
Трек 5 нет в базе данных
Трек 6 нет в базе данных
Трек 7 нет в базе данных
Трек 8 нет в базе данных
Трек 9 нет в базе данных
Трек 10 нет в базе данных
Трек 11 нет в базе данных
Трек 12 нет в базе данных
Трек 13 нет в базе данных
Трек 14 нет в базе данных
Трек 15 нет в базе данных

Ни одного трека нет в базе AccurateRip

Конец отчёта



VA - A Collection of Contemporary Blues Songs From The States (1992-1999) (17 CDs)

VA - A Collection of Contemporary Blues Songs: More Desaster City Blues (1996)
EAC Rip | APE (Image+.cue, log) | Cover included | 442 mb
Genre: Blues / Label: Taxim

Tracklist:
01. James Armstron - The Devilґs LivinґThere [0:04:46.86]
02. Blistering Blues Band - Help The poor [0:05:26.22]
03. Blue By Nature - The Blues Is In My Way [0:05:22.04]
04. Barry Levenson - Cobra Days/Blue Tears [0:07:13.00]
05. Christine Lakeland - Details [0:03:08.26]
06. Rich Harper Blues Band - Sheґs On Her Way Up [0:05:02.49]
07. Brenda Burns - One Woman Man [0:04:39.60]
08. RedHot Blues - One Bottle [0:07:53.93]
09. Cammilles Blues Box - My Man [0:03:38.93]
10. Blue By Nature - Love Me All Night [0:05:07.04]
11. Stan Ruffo & The Instigators - Take Away My Breath [0:03:25.29]
12. Brenda Burns - Broken Hearts Row [0:03:02.97]
13. RedHot Blues - Haunted By My Past [0:05:14.76]
14. Barry Levenson - Steel Life [0:05:51.26]

Exact Audio Copy V0.99 prebeta 4 from 23. January 2008

Отчёт EAC об извлечении, выполненном 10. июня 2010, 20:07

Various Artists / More Desaster City Blues

Дисковод: PLEXTOR DVDR PX-820A Adapter: 3 ID: 1

Режим чтения : Достоверность
Использование точного потока : Да
Отключение кэша аудио : Да
Использование указателей C2 : Нет

Коррекция смещения при чтении : 48
Способность читать области Lead-in и Lead-out : Нет
Заполнение пропущенных сэмплов тишиной : Да
Удаление блоков с тишиной в начале и конце : Нет
При вычислениях CRC использовались нулевые сэмплы : Да
Интерфейс : Встроенный Win32-интерфейс для Win NT/2000

Выходной формат : Внутренние WAV-операции
Формат сэмплов : 44.100 Гц; 16 бит; стерео

TOC извлечённого CD

Трек | Старт | Длительность | Начальный сектор | Конечный сектор
––––––––––––––––––––––––––––––––––-
1 | 0:00.00 | 4:46.65 | 0 | 21514
2 | 4:46.65 | 5:26.17 | 21515 | 45981
3 | 10:13.07 | 5:22.03 | 45982 | 70134
4 | 15:35.10 | 7:13.00 | 70135 | 102609
5 | 22:48.10 | 3:08.20 | 102610 | 116729
6 | 25:56.30 | 5:02.37 | 116730 | 139416
7 | 30:58.67 | 4:39.45 | 139417 | 160386
8 | 35:38.37 | 7:53.70 | 160387 | 195931
9 | 43:32.32 | 3:38.70 | 195932 | 212351
10 | 47:11.27 | 5:07.03 | 212352 | 235379
11 | 52:18.30 | 3:25.22 | 235380 | 250776
12 | 55:43.52 | 3:02.73 | 250777 | 264499
13 | 58:46.50 | 5:14.57 | 264500 | 288106
14 | 64:01.32 | 5:51.20 | 288107 | 314451

Характеристики диапазона извлечения и сообщения об ошибках

Выбранный диапазон

Имя файла D:\КОЛЛЕКЦИЯ 5\СБОРНИКИ TAXIM\MORE DESASTER CITY BLUES\Various Artists - More Desaster City Blues.wav

Пиковый уровень 94.4 %
Качество диапазона 99.9 %
CRC копии 4A36D9BC
Копирование… OK

Ошибок не произошло

AccurateRip: сводка

Трек 1 нет в базе данных
Трек 2 нет в базе данных
Трек 3 нет в базе данных
Трек 4 нет в базе данных
Трек 5 нет в базе данных
Трек 6 нет в базе данных
Трек 7 нет в базе данных
Трек 8 нет в базе данных
Трек 9 нет в базе данных
Трек 10 нет в базе данных
Трек 11 нет в базе данных
Трек 12 нет в базе данных
Трек 13 нет в базе данных
Трек 14 нет в базе данных

Ни одного трека нет в базе AccurateRip

Конец отчёта



VA - A Collection of Contemporary Blues Songs From The States (1992-1999) (17 CDs)

VA - A Collection of Contemporary Blues Songs: A Fifth of Good Whiskey Blues (1998)
EAC Rip | APE (Image+.cue, log) | 01:06:48 min | Cover included | 416 mb
Genre: Blues / Label: Taxim

Tracklist:
01. Buddy Ray - Root Man
02. Harry Dial Band - Born Under A Bad Sign
03. Kenny Brown - Jumper On The Line
04. Jimmy Birdsong - I'll Be What You Want Me To Be
05. Dave Mac Kennnzie - Rats In My Bedroom
06. Gator Dogs - Samp Man
07. Etta Britt - Mama's Got Her Gun
08. Dave Duncan - Tangled Up In Your Love
09. Little Charles & The Sidewinders - Young Girl
10. Christine Kittrell - Sittin' Here Drinkin'
11. Buddy Ray - Cab Driver
12. Richard Waters And The Blues Boyz - Long Cold Lonely Winter
13. Perry Welsh & The Mighty Johnsons - Sun Is Shining
14. Scott Holt Band - Let's Sraighten It Out
15. Danny Rhodes And The Messengers - River Road

Exact Audio Copy V0.99 prebeta 4 from 23. January 2008

Отчёт EAC об извлечении, выполненном 11. июня 2010, 13:53

Diverse / A Fifth of Good Whiskey Blues

Дисковод: PLEXTOR DVDR PX-820A Adapter: 3 ID: 1

Режим чтения : Достоверность
Использование точного потока : Да
Отключение кэша аудио : Да
Использование указателей C2 : Нет

Коррекция смещения при чтении : 48
Способность читать области Lead-in и Lead-out : Нет
Заполнение пропущенных сэмплов тишиной : Да
Удаление блоков с тишиной в начале и конце : Нет
При вычислениях CRC использовались нулевые сэмплы : Да
Интерфейс : Встроенный Win32-интерфейс для Win NT/2000

Выходной формат : Внутренние WAV-операции
Формат сэмплов : 44.100 Гц; 16 бит; стерео

TOC извлечённого CD

Трек | Старт | Длительность | Начальный сектор | Конечный сектор
––––––––––––––––––––––––––––––––––-
1 | 0:00.00 | 4:48.12 | 0 | 21611
2 | 4:48.12 | 4:12.30 | 21612 | 40541
3 | 9:00.42 | 6:08.45 | 40542 | 68186
4 | 15:09.12 | 2:50.48 | 68187 | 80984
5 | 17:59.60 | 4:26.17 | 80985 | 100951
6 | 22:26.02 | 4:01.03 | 100952 | 119029
7 | 26:27.05 | 2:56.57 | 119030 | 132286
8 | 29:23.62 | 5:17.55 | 132287 | 156116
9 | 34:41.42 | 3:31.65 | 156117 | 172006
10 | 38:13.32 | 4:45.70 | 172007 | 193451
11 | 42:59.27 | 3:57.43 | 193452 | 211269
12 | 46:56.70 | 6:39.00 | 211270 | 241194
13 | 53:35.70 | 3:54.40 | 241195 | 258784
14 | 57:30.35 | 5:41.15 | 258785 | 284374
15 | 63:11.50 | 3:43.00 | 284375 | 301099

Характеристики диапазона извлечения и сообщения об ошибках

Выбранный диапазон

Имя файла D:\КОЛЛЕКЦИЯ 5\СБОРНИКИ TAXIM\A FIFTH OF GOOD WHISKEY BLUES\Diverse - A Fifth of Good Whiskey Blues.wav

Пиковый уровень 99.9 %
Качество диапазона 99.9 %
CRC копии D306113B
Копирование… OK

Ошибок не произошло

AccurateRip: сводка

Трек 1 нет в базе данных
Трек 2 нет в базе данных
Трек 3 нет в базе данных
Трек 4 нет в базе данных
Трек 5 нет в базе данных
Трек 6 нет в базе данных
Трек 7 нет в базе данных
Трек 8 нет в базе данных
Трек 9 нет в базе данных
Трек 10 нет в базе данных
Трек 11 нет в базе данных
Трек 12 нет в базе данных
Трек 13 нет в базе данных
Трек 14 нет в базе данных
Трек 15 нет в базе данных

Ни одного трека нет в базе AccurateRip

Конец отчёта



VA - A Collection of Contemporary Blues Songs From The States (1992-1999) (17 CDs)

VA - A Collection of Contemporary Blues Songs: A Fourth Wave Of Bay Area Blues (1998)
EAC Rip | APE (Image+.cue, log) | 01:19:07 min | Cover included | 477 mb
Genre: Blues / Label: Taxim

Tracklist:
01. Anthony Paul / Don't Let The Same Dog Bite You Twice [0:04:20:01]
02. Michael Barclay Blues Band / Don't Want To Touch That Woman [0:05:21:02]
03. Richie Barron / Somebody's Got To You [0:04:09:10]
04. Red Beans & Rice / The Dark Side [0:06:07.16]
05. Jonathan Kalb / Shadow Of A Man [0:04:19.93]
06. The Aces / Can't See The Light [0:04:04.53]
07. Barry Goldberg / What About Me [0:04:26.70]
08. Chuck Day Band / Parchman Farm [0:06:04.62]
09. Chris Michie / Sweet Disposition [0:03:54.93]
10. Randy Forrester / Mean Old World [0:02:37.93]
11. Soul Drivers / Don't Keep Me Waiting [0:04:52.86]
12. Terry Hanck and The Soulrockers / Walk That Walk [0:07:44.00]
13. Darby Suck / Red House [0:05:20.73]
14. Mick Martin & The Blues Rockers / Losing You [0:09:55.24]
15. Chronic with a K feat. Leigh Stephens / WeGotta Out Of This Place [0:05:55.82]

Exact Audio Copy V0.99 prebeta 4 from 23. January 2008

Отчёт EAC об извлечении, выполненном 10. июня 2010, 17:22

Taxim Records / A Fourth Wave Of Bay Area Blues

Дисковод: PLEXTOR DVDR PX-820A Adapter: 3 ID: 1

Режим чтения : Достоверность
Использование точного потока : Да
Отключение кэша аудио : Да
Использование указателей C2 : Нет

Коррекция смещения при чтении : 48
Способность читать области Lead-in и Lead-out : Нет
Заполнение пропущенных сэмплов тишиной : Да
Удаление блоков с тишиной в начале и конце : Нет
При вычислениях CRC использовались нулевые сэмплы : Да
Интерфейс : Встроенный Win32-интерфейс для Win NT/2000

Выходной формат : Внутренние WAV-операции
Формат сэмплов : 44.100 Гц; 16 бит; стерео

TOC извлечённого CD

Трек | Старт | Длительность | Начальный сектор | Конечный сектор
––––––––––––––––––––––––––––––––––-
1 | 0:00.00 | 4:20.15 | 0 | 19514
2 | 4:20.15 | 5:21.30 | 19515 | 43619
3 | 9:41.45 | 4:09.25 | 43620 | 62319
4 | 13:50.70 | 6:07.12 | 62320 | 89856
5 | 19:58.07 | 4:19.70 | 89857 | 109351
6 | 24:18.02 | 4:04.40 | 109352 | 127691
7 | 28:22.42 | 4:26.53 | 127692 | 147694
8 | 32:49.20 | 6:04.47 | 147695 | 175041
9 | 38:53.67 | 3:54.70 | 175042 | 192661
10 | 42:48.62 | 2:37.70 | 192662 | 204506
11 | 45:26.57 | 4:52.65 | 204507 | 226471
12 | 50:19.47 | 7:44.00 | 226472 | 261271
13 | 58:03.47 | 5:20.55 | 261272 | 285326
14 | 63:24.27 | 9:55.18 | 285327 | 329969
15 | 73:19.45 | 5:55.62 | 329970 | 356656

Характеристики диапазона извлечения и сообщения об ошибках

Выбранный диапазон

Имя файла D:\КОЛЛЕКЦИЯ 5\СБОРНИКИ TAXIM\A FOURTH WAVE OF BAY AREA BLUES\Taxim Records - A Fourth Wave Of Bay Area Blues.wav

Пиковый уровень 94.4 %
Качество диапазона 99.9 %
CRC копии D624C521
Копирование… OK

Ошибок не произошло

AccurateRip: сводка

Трек 1 точное извлечение (доверие 1) [0F9D6E9A]
Трек 2 точное извлечение (доверие 1) [C51BDF52]
Трек 3 точное извлечение (доверие 1) [50AB1948]
Трек 4 точное извлечение (доверие 1) [EDE172BF]
Трек 5 точное извлечение (доверие 1) [54CCCA05]
Трек 6 точное извлечение (доверие 1) [E37204A6]
Трек 7 точное извлечение (доверие 1) [D8ED97B0]
Трек 8 точное извлечение (доверие 1) [962A1E48]
Трек 9 точное извлечение (доверие 1) [CC878371]
Трек 10 точное извлечение (доверие 1) [8D636B6C]
Трек 11 точное извлечение (доверие 1) [8DAA934F]
Трек 12 точное извлечение (доверие 1) [04A108A8]
Трек 13 точное извлечение (доверие 1) [F4E4778A]
Трек 14 точное извлечение (доверие 1) [37085A18]
Трек 15 точное извлечение (доверие 1) [8F1C5EF9]

Все треки извлечены точно

Конец отчёта



VA - A Collection of Contemporary Blues Songs From The States (1992-1999) (17 CDs)

VA - A Collection of Contemporary Blues Songs: Good Whiskey Blues Live (1999)
EAC Rip | APE (Image+.cue, log) | Cover included | 453 mb
Genre: Blues / Label: Taxim

Tracklist:
01. Clarence Dobbins Review / Hearsy [0:02:29.66]
02. Kentucky Thunder / Love Is A Gift [0:04:02.76]
03. Kentucky Thunder / Mamaґs Got Her Gun [0:04:06.53]
04. Mike Griffin The Unknown Blues Band / The Blues Ainґt Never Gonna Die [0:11:31.10]
05. Gary Nicholson & The Change / I Got The Itch [0:05:47.20]
06. Eddir Goreґs Soiree / Get Up On It [0:04:58.62]
07. Michael Henderson & The Bluebloods / When The Welfare Turnґs It Back On You [0:07:39.97]
08. Sid Herringґs Blue Sauce / Move On [0:03:28.82]
09. Little Kings / Reconsider Baby [0:06:46.13]
10. Mary/Ann Brandon - Stone Blues [0:02:39.50]
11. Scott Holt Band / Ainґt Gonna Be A Fool [0:06:09.86]
12. Blues Boyz / Murdered By Love [0:06:07.06]
13. Kentucky Thunder / Your Loveґs Got A Hold On Me [0:03:33.40]

Exact Audio Copy V0.99 prebeta 4 from 23. January 2008

Отчёт EAC об извлечении, выполненном 11. июня 2010, 15:16

Various Artists / Good Whiskey Blues Live

Дисковод: PLEXTOR DVDR PX-820A Adapter: 3 ID: 1

Режим чтения : Достоверность
Использование точного потока : Да
Отключение кэша аудио : Да
Использование указателей C2 : Нет

Коррекция смещения при чтении : 48
Способность читать области Lead-in и Lead-out : Нет
Заполнение пропущенных сэмплов тишиной : Да
Удаление блоков с тишиной в начале и конце : Нет
При вычислениях CRC использовались нулевые сэмплы : Да
Интерфейс : Встроенный Win32-интерфейс для Win NT/2000

Выходной формат : Внутренние WAV-операции
Формат сэмплов : 44.100 Гц; 16 бит; стерео

TOC извлечённого CD

Трек | Старт | Длительность | Начальный сектор | Конечный сектор
––––––––––––––––––––––––––––––––––-
1 | 0:00.00 | 2:29.50 | 0 | 11224
2 | 2:29.50 | 4:02.57 | 11225 | 29431
3 | 6:32.32 | 4:06.40 | 29432 | 47921
4 | 10:38.72 | 11:31.08 | 47922 | 99754
5 | 22:10.05 | 5:47.15 | 99755 | 125794
6 | 27:57.20 | 4:58.47 | 125795 | 148191
7 | 32:55.67 | 7:39.73 | 148192 | 182689
8 | 40:35.65 | 3:28.62 | 182690 | 198351
9 | 44:04.52 | 6:46.10 | 198352 | 228811
10 | 50:50.62 | 2:39.38 | 228812 | 240774
11 | 53:30.25 | 6:09.65 | 240775 | 268514
12 | 59:40.15 | 6:07.05 | 268515 | 296044
13 | 65:47.20 | 3:33.30 | 296045 | 312049

Характеристики диапазона извлечения и сообщения об ошибках

Выбранный диапазон

Имя файла D:\КОЛЛЕКЦИЯ 5\СБОРНИКИ TAXIM\GOOD WHISKEY BLUES LIVE\Various Artists - Good Whiskey Blues Live.wav

Пиковый уровень 98.8 %
Качество диапазона 99.9 %
CRC копии BC2EC73B
Копирование… OK

Ошибок не произошло

AccurateRip: сводка

Трек 1 нет в базе данных
Трек 2 нет в базе данных
Трек 3 нет в базе данных
Трек 4 нет в базе данных
Трек 5 нет в базе данных
Трек 6 нет в базе данных
Трек 7 нет в базе данных
Трек 8 нет в базе данных
Трек 9 нет в базе данных
Трек 10 нет в базе данных
Трек 11 нет в базе данных
Трек 12 нет в базе данных
Трек 13 нет в базе данных

Ни одного трека нет в базе AccurateRip

Конец отчёта



VA - A Collection of Contemporary Blues Songs From The States (1992-1999) (17 CDs)

VA - A Collection of Contemporary Blues Songs: Peach State Blues (1999)
EAC Rip | APE (Image+.cue, log) | 01:01:21 min | Cover included | 393 mb
Genre: Blues / Label: Taxim

Tracklist:
01. King Johnson - Where My Baby Might Be [0:05:06.37]
02. Diane Durrett - Blue Eyed Soul [0:03:32.92]
03. Barry Richman Band - Without Explanation [0:05:34.88]
04. Chris Hicks - Blues Got Me Down [0:06:35.57]
05. Wayne "Bear" Sauls - Special Kind Of Mambo [0:02:39.09]
06. Tim Brooks - Sweet Dreams [0:04:37.46]
07. Diane Durrett - Side Squeeze [0:04:00.64]
08. Doug "Little Brother" Jones - When The Deal Goes Down [0:03:57.13]
09. Doug "Little Brother" Jones - The Last Time [0:02:59.62]
10. Reddog - Honest Man [0:04:25.37]
11. Barry Richman Band - Reflection Avenue [0:06:06.06]
12. Donnie McCormick - It's A Feeling [0:07:29.46]
13. Tim Brooks - Jesse [0:04:22.69]

Exact Audio Copy V0.99 prebeta 4 from 23. January 2008

Отчёт EAC об извлечении, выполненном 11. июня 2010, 16:05

Various / Peach State Blues

Дисковод: PLEXTOR DVDR PX-820A Adapter: 3 ID: 1

Режим чтения : Достоверность
Использование точного потока : Да
Отключение кэша аудио : Да
Использование указателей C2 : Нет

Коррекция смещения при чтении : 48
Способность читать области Lead-in и Lead-out : Нет
Заполнение пропущенных сэмплов тишиной : Да
Удаление блоков с тишиной в начале и конце : Нет
При вычислениях CRC использовались нулевые сэмплы : Да
Интерфейс : Встроенный Win32-интерфейс для Win NT/2000

Выходной формат : Внутренние WAV-операции
Формат сэмплов : 44.100 Гц; 16 бит; стерео

TOC извлечённого CD

Трек | Старт | Длительность | Начальный сектор | Конечный сектор
––––––––––––––––––––––––––––––––––-
1 | 0:00.00 | 5:06.28 | 0 | 22977
2 | 5:06.28 | 3:32.69 | 22978 | 38946
3 | 8:39.22 | 5:34.66 | 38947 | 64062
4 | 14:14.13 | 6:35.43 | 64063 | 93730
5 | 20:49.56 | 2:39.07 | 93731 | 105662
6 | 23:28.63 | 4:37.35 | 105663 | 126472
7 | 28:06.23 | 4:00.48 | 126473 | 144520
8 | 32:06.71 | 3:57.10 | 144521 | 162305
9 | 36:04.06 | 2:59.47 | 162306 | 175777
10 | 39:03.53 | 4:25.28 | 175778 | 195680
11 | 43:29.06 | 6:06.05 | 195681 | 223135
12 | 49:35.11 | 7:29.35 | 223136 | 256845
13 | 57:04.46 | 4:22.52 | 256846 | 276547

Характеристики диапазона извлечения и сообщения об ошибках

Выбранный диапазон

Имя файла D:\КОЛЛЕКЦИЯ 5\СБОРНИКИ TAXIM\PEACH STATE BLUES\Various - Peach State Blues.wav

Пиковый уровень 100.0 %
Качество диапазона 100.0 %
CRC копии 930661BE
Копирование… OK

Ошибок не произошло

AccurateRip: сводка

Трек 1 точное извлечение (доверие 1) [69794C97]
Трек 2 точное извлечение (доверие 1) [005674D9]
Трек 3 точное извлечение (доверие 1) [44A83A43]
Трек 4 точное извлечение (доверие 1) [2A953660]
Трек 5 точное извлечение (доверие 1) [1A70E3D6]
Трек 6 точное извлечение (доверие 1) [DC5FF73B]
Трек 7 точное извлечение (доверие 1) [C52786F8]
Трек 8 точное извлечение (доверие 1) [BF885AE6]
Трек 9 точное извлечение (доверие 1) [3DD3049D]
Трек 10 точное извлечение (доверие 1) [28D158B0]
Трек 11 точное извлечение (доверие 1) [5C9EA423]
Трек 12 точное извлечение (доверие 1) [60BF24C0]
Трек 13 точное извлечение (доверие 1) [28DA227E]

Все треки извлечены точно

Конец отчёта


Thanks to the original ripper.

**Follow My Music Blog**