VA - Times Ain't Like They Used to Be Vol.4 (1999)

Posted By: countryfreak
VA - Times Ain't Like They Used to Be Vol.4 (1999)

VA - Times Ain't Like They Used to Be Vol. 4 (1999)
EAC Rip | FLAC (Tracks) + CUE + LOG | Covers | 276 MB
Genre: Blues/Country/Folk | Label: Yazoo | Release Date: October 19, 1999 | Catalog Number: 2048
Hoster: Uploaded + DepositFiles | RAR 5% Rec.

A collection of classic recordings from the 1920s and 30s featuring many all-time great performances of early American rural music. This series is a fascinating overview of traditional American musical styles from the Civil War to the 1920s including fiddle tunes, rags, banjo songs, religious selections, old ballads, blues, etc.The mystical allure of old music is listening to
something that speaks of another time and place, as is communicated in the music contained in these mysterious grooves"-FMQB "Will make you alternately grin and weep with joy."– by Victory Music Review


––––––––-
Tracklist
––––––––-
1. Jimmie Tarlton / Lowe Bonnie 3:24
2. William Harris / Early Morning Blues 2:51
3. Burnett & Rutherford / Billy In The Lowground 3:10
4. Dixon Brothers / Rambling 3:13
5. Pink Anderson & Simmie Dooley / Every Day In The Week Blues 2:57
6. Sweet Brothers / I Got A Bulldog 2:52
7. Cliff Carlisle / Tom Cat Blues 2:54
8. Hi Henry Brown / Preacher Blues 3:29
9. Kessinger Brothers / Salt River 3:09
10. Golden Melody Boys / Blushing Bride 2:31
11. Georgia Yellow Hammers / Kiss Me Quick 2:52
12. Charlie Patton / Magnolia Blues 3:13
13. Anglelas Le Jeunne / Perrodin Two Step 3:02
14. Fiddling John Carson / Bachelor's Hall 3:08
15. Tommy Johnson / Walking Shoes 3:06
16. Stripling Brothers / Wolves Howling 3:28
17. James Cole & His Washboard Band / Mistreated The Only Friend You Had 3:12
18. Martin & Hobbs / Havana River Guide 3:08
19. Cotton Top Mountain Sanctified Singers / I Want Two Wings To Veil My Face 2:46
20. Jess Hillard & His West Virginia Hillbillies / Make Down The Bed And We'll Sleep Together 3:15
21. Skip James / Special Rider Blues 3:03
22. Watts & Wilson / Walk Right In 2:45
23. Rev. Rice & Congregation / Leaving All To Follow Jesus 2:58

VA - Times Ain't Like They Used to Be Vol.4 (1999)


This is not my Rip,not my Scans! All thanks go to original releaser!


EAC extraction logfile from 15. July 2007, 14:54 for CD
Various Artists / Times Ain't Like They Used to Be Vol. 4

Used drive : LITE-ON CD-ROM LTN-529S Adapter: 3 ID: 1
Read mode : Secure
Read offset correction : 0
Overread into Lead-In and Lead-Out : No

Used output format : C:\Program Files\FLAC\flac.exe (User Defined Encoder)
192 kBit/s
Additional command line options : -V -8 -T "artist=%a" -T "title=%t" -T "album=%g" -T "date=%y" -T "tracknumber=%n" -T "genre=%m" %s

Other options :
Fill up missing offset samples with silence : Yes
Delete leading and trailing silent blocks : No
Native Win32 interface for Win NT & 2000


Track 1
Filename L:\Current Flac Rips\01 - Lowe Bonnie.wav

Timing problem 0:00:12

Peak level 99.8 %
Copy CRC 1C1E7B87
Copy finished

Track 2
Filename L:\Current Flac Rips\02 - Early Morning Blues.wav

Timing problem 0:00:00

Peak level 63.7 %
Copy CRC FCCD603B
Copy finished

Track 3
Filename L:\Current Flac Rips\03 - Billy In The Lowground.wav

Timing problem 0:00:00

Peak level 99.9 %
Copy CRC 732BF6FC
Copy finished

Track 4
Filename L:\Current Flac Rips\04 - Rambling.wav

Peak level 77.8 %
Copy CRC F04052D7
Copy OK

Track 5
Filename L:\Current Flac Rips\05 - Every Day In The Week Blues.wav

Timing problem 0:00:00
Timing problem 0:01:57
Timing problem 0:02:14

Peak level 99.9 %
Copy CRC 3EF5BE7A
Copy finished

Track 6
Filename L:\Current Flac Rips\06 - I Got A Bulldog.wav

Timing problem 0:02:42

Peak level 65.9 %
Copy CRC 44D7A3EA
Copy finished

Track 7
Filename L:\Current Flac Rips\07 - Tom Cat Blues.wav

Timing problem 0:00:00

Peak level 72.5 %
Copy CRC 2D93158F
Copy finished

Track 8
Filename L:\Current Flac Rips\08 - Preacher Blues.wav

Timing problem 0:00:00
Timing problem 0:02:32

Peak level 98.0 %
Copy CRC 073D5A0A
Copy finished

Track 9
Filename L:\Current Flac Rips\09 - Salt River.wav

Timing problem 0:00:00
Timing problem 0:02:41

Peak level 82.7 %
Copy CRC FEF0390A
Copy finished

Track 10
Filename L:\Current Flac Rips\10 - Blushing Bride.wav

Timing problem 0:00:00
Timing problem 0:02:18

Peak level 99.9 %
Copy CRC 80BB442B
Copy finished

Track 11
Filename L:\Current Flac Rips\11 - Kiss Me Quick.wav

Timing problem 0:00:00
Timing problem 0:01:56

Peak level 92.0 %
Copy CRC 51B67BD7
Copy finished

Track 12
Filename L:\Current Flac Rips\12 - Magnolia Blues.wav

Timing problem 0:00:00
Timing problem 0:02:18
Timing problem 0:02:56

Peak level 99.9 %
Copy CRC A46E230C
Copy finished

Track 13
Filename L:\Current Flac Rips\13 - Perrodin Two Step.wav

Timing problem 0:01:17

Peak level 98.4 %
Copy CRC 43124D0D
Copy finished

Track 14
Filename L:\Current Flac Rips\14 - Bachelor's Hall.wav

Timing problem 0:00:00

Peak level 98.0 %
Copy CRC E934047B
Copy finished

Track 15
Filename L:\Current Flac Rips\15 - Walking Shoes.wav

Timing problem 0:00:00
Timing problem 0:01:55

Peak level 98.1 %
Copy CRC 9E4A0CA1
Copy finished

Track 16
Filename L:\Current Flac Rips\16 - Wolves Howling.wav

Timing problem 0:00:00
Timing problem 0:00:04

Peak level 66.6 %
Copy CRC F74C9691
Copy finished

Track 17
Filename L:\Current Flac Rips\17 - Mistreated The Only Friend You Had.wav

Timing problem 0:00:00

Peak level 98.1 %
Copy CRC 5C8FC2D2
Copy finished

Track 18
Filename L:\Current Flac Rips\18 - Havana River Guide.wav

Timing problem 0:00:00
Timing problem 0:01:39
Timing problem 0:01:48
Timing problem 0:02:47

Peak level 91.6 %
Copy CRC 46E3FFFD
Copy finished

Track 19
Filename L:\Current Flac Rips\19 - I Want Two Wings To Veil My Face.wav

Timing problem 0:00:00
Timing problem 0:01:55

Peak level 91.9 %
Copy CRC A674BC43
Copy finished

Track 20
Filename L:\Current Flac Rips\20 - Make Down The Bed And We'll Sleep Together.wav

Timing problem 0:01:06
Timing problem 0:01:27
Timing problem 0:01:39
Timing problem 0:02:40

Peak level 85.7 %
Copy CRC 49756AD4
Copy finished

Track 21
Filename L:\Current Flac Rips\21 - Special Rider Blues.wav

Timing problem 0:00:00
Timing problem 0:01:58

Peak level 99.8 %
Copy CRC 03EBBED2
Copy finished

Track 22
Filename L:\Current Flac Rips\22 - Walk Right In.wav

Timing problem 0:00:09 - 0:00:10
Timing problem 0:01:55
Timing problem 0:02:07

Peak level 99.9 %
Copy CRC D8175D90
Copy finished

Track 23
Filename L:\Current Flac Rips\23 - Leaving All To Follow Jesus.wav

Timing problem 0:00:04
Timing problem 0:00:07
Timing problem 0:02:45

Peak level 88.0 %
Copy CRC 84AB778E
Copy finished

No errors occured


End of status report


foobar2000 1.2.6 / Dynamic Range Meter 1.1.1
log date: 2013-07-29 08:56:35

––––––––––––––––––––––––––––––––––––––––
Analyzed: Burnett & Rutherford / Times Ain't Like They Used to Be Vol. 4 (1)
Charlie Patton / Times Ain't Like They Used to Be Vol. 4 (2)
––––––––––––––––––––––––––––––––––––––––

DR Peak RMS Duration Track
––––––––––––––––––––––––––––––––––––––––
DR12 -0.01 dB -13.99 dB 3:11 03-Billy In The Lowground
DR11 -0.01 dB -14.21 dB 3:13 12-Magnolia Blues
––––––––––––––––––––––––––––––––––––––––

Number of tracks: 2
Official DR value: DR12

Samplerate: 44100 Hz
Channels: 2
Bits per sample: 16
Bitrate: 475 kbps
Codec: FLAC
================================================================================

––––––––––––––––––––––––––––––––––––––––
Analyzed: Cliff Carlisle / Times Ain't Like They Used to Be Vol. 4 (1)
Cotton Top Mountain Sanctified Singers / Times Ain't Like They Used to Be Vol. 4 (2)
––––––––––––––––––––––––––––––––––––––––

DR Peak RMS Duration Track
––––––––––––––––––––––––––––––––––––––––
DR11 -2.79 dB -16.06 dB 2:55 07-Tom Cat Blues
DR13 -0.73 dB -16.01 dB 2:46 19-I Want Two Wings To Veil My Face
––––––––––––––––––––––––––––––––––––––––

Number of tracks: 2
Official DR value: DR12

Samplerate: 44100 Hz
Channels: 2
Bits per sample: 16
Bitrate: 448 kbps
Codec: FLAC
================================================================================

––––––––––––––––––––––––––––––––––––––––
Analyzed: Dixon Brothers / Times Ain't Like They Used to Be Vol. 4 (1)
Fiddling John Carson / Times Ain't Like They Used to Be Vol. 4 (2)
––––––––––––––––––––––––––––––––––––––––

DR Peak RMS Duration Track
––––––––––––––––––––––––––––––––––––––––
DR11 -2.17 dB -16.33 dB 3:14 04-Rambling
DR10 -0.17 dB -12.63 dB 3:09 14-Bachelor's Hall
––––––––––––––––––––––––––––––––––––––––

Number of tracks: 2
Official DR value: DR11

Samplerate: 44100 Hz
Channels: 2
Bits per sample: 16
Bitrate: 534 kbps
Codec: FLAC
================================================================================

––––––––––––––––––––––––––––––––––––––––
Statistics for: 11-Kiss Me Quick
Number of samples: 7604604
Duration: 2:52
––––––––––––––––––––––––––––––––––––––––

Left Right

Peak Value: -0.72 dB –- -0.72 dB
Avg RMS: -12.44 dB –- -12.44 dB
DR channel: 9.74 dB –- 9.74 dB
––––––––––––––––––––––––––––––––––––––––

Official DR Value: DR10

Samplerate: 44100 Hz
Channels: 2
Bits per sample: 16
Bitrate: 451 kbps
Codec: FLAC
================================================================================
––––––––––––––––––––––––––––––––––––––––
Statistics for: 10-Blushing Bride
Number of samples: 6677916
Duration: 2:31
––––––––––––––––––––––––––––––––––––––––

Left Right

Peak Value: -0.01 dB –- -0.01 dB
Avg RMS: -14.12 dB –- -14.12 dB
DR channel: 11.85 dB –- 11.85 dB
––––––––––––––––––––––––––––––––––––––––

Official DR Value: DR12

Samplerate: 44100 Hz
Channels: 2
Bits per sample: 16
Bitrate: 496 kbps
Codec: FLAC
================================================================================
––––––––––––––––––––––––––––––––––––––––
Analyzed: Hi Henry Brown / Times Ain't Like They Used to Be Vol. 4 (1)
James Cole & His Washboard Band / Times Ain't Like They Used to Be Vol. 4 (2)
Jess Hillard & His West Virginia Hillbillies / Times Ain't Like They Used to Be Vol. 4 (3)
––––––––––––––––––––––––––––––––––––––––

DR Peak RMS Duration Track
––––––––––––––––––––––––––––––––––––––––
DR14 -0.17 dB -17.50 dB 3:30 08-Preacher Blues
DR11 -0.17 dB -13.74 dB 3:12 17-Mistreated The Only Friend You Had
DR11 -1.34 dB -14.59 dB 3:16 20-Make Down The Bed And We'll Sleep Together
––––––––––––––––––––––––––––––––––––––––

Number of tracks: 3
Official DR value: DR12

Samplerate: 44100 Hz
Channels: 2
Bits per sample: 16
Bitrate: 468 kbps
Codec: FLAC
================================================================================

––––––––––––––––––––––––––––––––––––––––
Analyzed: Jimmie Tarlton / Times Ain't Like They Used to Be Vol. 4 (1)
Kessinger Brothers / Times Ain't Like They Used to Be Vol. 4 (2)
Martin & Hobbs / Times Ain't Like They Used to Be Vol. 4 (3)
––––––––––––––––––––––––––––––––––––––––

DR Peak RMS Duration Track
––––––––––––––––––––––––––––––––––––––––
DR13 -0.01 dB -16.51 dB 3:24 01-Lowe Bonnie
DR12 -1.64 dB -15.04 dB 3:10 09-Salt River
DR11 -0.75 dB -16.47 dB 3:08 18-Havana River Guide
––––––––––––––––––––––––––––––––––––––––

Number of tracks: 3
Official DR value: DR12

Samplerate: 44100 Hz
Channels: 2
Bits per sample: 16
Bitrate: 450 kbps
Codec: FLAC
================================================================================

––––––––––––––––––––––––––––––––––––––––
Analyzed: Pink Anderson & Simmie Dooley / Times Ain't Like They Used to Be Vol. 4 (1)
Rev. Rice & Congregation / Times Ain't Like They Used to Be Vol. 4 (2)
––––––––––––––––––––––––––––––––––––––––

DR Peak RMS Duration Track
––––––––––––––––––––––––––––––––––––––––
DR14 -0.01 dB -15.21 dB 2:57 05-Every Day In The Week Blues
DR12 -1.10 dB -15.41 dB 2:58 23-Leaving All To Follow Jesus
––––––––––––––––––––––––––––––––––––––––

Number of tracks: 2
Official DR value: DR13

Samplerate: 44100 Hz
Channels: 2
Bits per sample: 16
Bitrate: 482 kbps
Codec: FLAC
================================================================================

––––––––––––––––––––––––––––––––––––––––
Statistics for: 21-Special Rider Blues
Number of samples: 8080884
Duration: 3:03
––––––––––––––––––––––––––––––––––––––––

Left Right

Peak Value: -0.01 dB –- -0.01 dB
Avg RMS: -15.78 dB –- -15.78 dB
DR channel: 11.46 dB –- 11.46 dB
––––––––––––––––––––––––––––––––––––––––

Official DR Value: DR11

Samplerate: 44100 Hz
Channels: 2
Bits per sample: 16
Bitrate: 426 kbps
Codec: FLAC
================================================================================
––––––––––––––––––––––––––––––––––––––––
Statistics for: 16-Wolves Howling
Number of samples: 9180444
Duration: 3:28
––––––––––––––––––––––––––––––––––––––––

Left Right

Peak Value: -3.52 dB –- -3.52 dB
Avg RMS: -17.91 dB –- -17.91 dB
DR channel: 13.10 dB –- 13.10 dB
––––––––––––––––––––––––––––––––––––––––

Official DR Value: DR13

Samplerate: 44100 Hz
Channels: 2
Bits per sample: 16
Bitrate: 453 kbps
Codec: FLAC
================================================================================
––––––––––––––––––––––––––––––––––––––––
Analyzed: Sweet Brothers / Times Ain't Like They Used to Be Vol. 4 (1)
Tommy Johnson / Times Ain't Like They Used to Be Vol. 4 (2)
Watts & Wilson / Times Ain't Like They Used to Be Vol. 4 (3)
––––––––––––––––––––––––––––––––––––––––

DR Peak RMS Duration Track
––––––––––––––––––––––––––––––––––––––––
DR9 -3.62 dB -15.03 dB 2:53 06-I Got A Bulldog
DR13 -0.16 dB -15.46 dB 3:06 15-Walking Shoes
DR12 -0.01 dB -16.61 dB 2:46 22-Walk Right In
––––––––––––––––––––––––––––––––––––––––

Number of tracks: 3
Official DR value: DR11

Samplerate: 44100 Hz
Channels: 2
Bits per sample: 16
Bitrate: 466 kbps
Codec: FLAC
================================================================================

––––––––––––––––––––––––––––––––––––––––
Statistics for: 02-Early Morning Blues
Number of samples: 7558740
Duration: 2:51
––––––––––––––––––––––––––––––––––––––––

Left Right

Peak Value: -3.91 dB –- -3.91 dB
Avg RMS: -17.34 dB –- -17.34 dB
DR channel: 10.35 dB –- 10.35 dB
––––––––––––––––––––––––––––––––––––––––

Official DR Value: DR10

Samplerate: 44100 Hz
Channels: 2
Bits per sample: 16
Bitrate: 499 kbps
Codec: FLAC
================================================================================


VA - Times Ain't Like They Used to Be Vol.4 (1999)

In case you encounter dead links in any of my posts, please send me a private message !!!!

NO mirrors and/or direct links in your comments, please !!!!

****Visit My Blog****


Uploaded

DepositFiles

***** Pass: countryfreak *****