Subcategories

VA - Kermit The Frog - Kermit Unpigged (1994) [RESTORED]

Posted By: Necromandus
VA - Kermit The Frog - Kermit Unpigged (1994) [RESTORED]

VA - Kermit The Frog - Kermit Unpigged (1994)
EAC Rip | FLAC, IMG+CUE+LOG | 280 MB | MP3 CBR 320 Kbps | 90 MB | Complete HQ Scans | PNG -> 20 MB
Rock/Comedy | Label: Jim Henson Records/BMG Kidz #74321233382 | RAR 3% Rec. | FilePost

Kermit Unpigged album by Kermit The Frog was released Sep 27, 1994 on the Jim Henson label. Kermit and the Muppets are joined by Don Henley, Ozzy Osbourne, Linda Ronstadt, Vince Gill, Jimmy Buffett and others.
Tracklist :

1. Kermit The Frog & Miss Piggy - She Drives Me Crazy - 4:56
2. Vince Gill & Kermit The Frog - Daydream - 3:06
3. George Benson, Clifford, & The Rhythm Rats - On Broadway - 4:18
4. Linda Ronstadt & Kermit The Frog - All I Have To Do Is Dream - 4:05
5. Ozzy Osbourne & Miss Piggy - Born To Be Wild - 3:29
6. Jimmy Buffett, The Great Gonzo, & Rizzo The Rat - Mr. Spaceman - 2:58
7. Don Henley & Kermit The Frog - Bein' Green - 3:54
8. Animal, Floyd, & Kermit The Frog - Wild Thing - 3:56
9. Kermit The Frog & Robin - Can't Get Along Without You - 3:39
10. The Muppets & Harry Smith - All Together Now - 3:18

Exact Audio Copy V1.0 beta 3 from 29. August 2011

EAC extraction logfile from 11. February 2013, 8:19

VA / Kermit Unpigged

Used drive : PIONEER DVD-RW DVR-219L Adapter: 1 ID: 0

Read mode : Secure
Utilize accurate stream : Yes
Defeat audio cache : Yes
Make use of C2 pointers : No

Read offset correction : 6
Overread into Lead-In and Lead-Out : No
Fill up missing offset samples with silence : Yes
Delete leading and trailing silent blocks : No
Null samples used in CRC calculations : Yes
Used interface : Native Win32 interface for Win NT & 2000

Used output format : Internal WAV Routines
Sample format : 44.100 Hz; 16 Bit; Stereo


TOC of the extracted CD

Track | Start | Length | Start sector | End sector
––––––––––––––––––––––––––––-
1 | 0:00.00 | 4:55.72 | 0 | 22196
2 | 4:55.72 | 3:06.20 | 22197 | 36166
3 | 8:02.17 | 4:17.45 | 36167 | 55486
4 | 12:19.62 | 4:05.33 | 55487 | 73894
5 | 16:25.20 | 3:28.42 | 73895 | 89536
6 | 19:53.62 | 2:58.33 | 89537 | 102919
7 | 22:52.20 | 3:54.37 | 102920 | 120506
8 | 26:46.57 | 3:55.60 | 120507 | 138191
9 | 30:42.42 | 3:38.40 | 138192 | 154581
10 | 34:21.07 | 3:18.33 | 154582 | 169464


Range status and errors

Selected range

Filename D:\.www.AvaxHome.ru\VA - Kermit Unpigged.wav

Peak level 100.0 %
Extraction speed 6.2 X
Range quality 100.0 %
Test CRC 4CE1F4F1
Copy CRC 4CE1F4F1
Copy OK

No errors occurred


AccurateRip summary

Track 1 accurately ripped (confidence 6) [BC89EB59] (AR v1)
Track 2 accurately ripped (confidence 6) [D5F759EE] (AR v1)
Track 3 accurately ripped (confidence 6) [0C78D1BF] (AR v1)
Track 4 accurately ripped (confidence 6) [7D7ACABE] (AR v1)
Track 5 accurately ripped (confidence 6) [3411C4B3] (AR v1)
Track 6 accurately ripped (confidence 6) [C9A79C6C] (AR v1)
Track 7 accurately ripped (confidence 6) [941566BC] (AR v1)
Track 8 accurately ripped (confidence 6) [6522DF45] (AR v1)
Track 9 accurately ripped (confidence 6) [55231456] (AR v1)
Track 10 accurately ripped (confidence 6) [E30D1F26] (AR v1)

All tracks accurately ripped

End of status report

–– CUETools DB Plugin V2.1.4

[CTDB TOCID: c4wX004BJBmOP7yDzS01yTf5j48-] found
Submit result: c4wX004BJBmOP7yDzS01yTf5j48- has been confirmed
Track | CTDB Status
1 | (3/7) Accurately ripped
2 | (2/7) Accurately ripped
3 | (2/7) Accurately ripped
4 | (3/7) Accurately ripped
5 | (3/7) Accurately ripped
6 | (3/7) Accurately ripped
7 | (3/7) Accurately ripped
8 | (2/7) Accurately ripped
9 | (3/7) Accurately ripped
10 | (2/7) Accurately ripped


==== Log checksum 33F082A4CFD62744193F0BD3AB6C973DA372F9EBE70C4F50CEB6BFF283F24E57 ====

Produced by John Boylan and Robert Kraft
Starring The Muppet Perfomance:
Kevin Clash - Clifford
Steve Whitmire - Kermit The Frog, Rizzo The Rat, Beaker
Frank Oz - Miss Piggy, Fozzie Bear, Animal
Jerry Nelson - Robin, Floyd
Dave Goelz - The Great Gonzo, Bunsen Honeydew
Lossless (FLAC)*
http://uploaded.net/file/jlp7x0o6/VAR94KULOS.rar

All Covers.png
http://uploaded.net/file/bkcjq6zg/VAR94KUCOV.rar

Lossy HQ (320 Kbps CBR)
http://uploaded.net/file/btyp2e47/VAR94KUMP3.rar

* Original CD -> EAC image, embedded cuesheet & more, foobar2000 ready, etc.
(all CUEs, LOGs and other technical info includes in the internal "CD_Support" archive).

Please, do not write these links at any web pages. Enjoy & keep the files alive!