Subcategories

VA - An Anthology Of Big Band Swing 1930-1955 (1993)

Posted By: TmanHome
VA - An Anthology Of Big Band Swing 1930-1955 (1993)

VA - An Anthology Of Big Band Swing 1930-1955 (1993)
EAC | FLAC | Tracks (Cue & Log) ~ 395 mb | MP3 320 kbps CBR ~ 287 mb | Scans included | 121 min
Jazz, Big Band, Swing | Label: MCA Records | Rel: 1993

This two-CD set is an unusually successful sampler. Although there are a few hits among the 40 selections, many obscurities are also included, and not all of the big bands represented are major names, such as Tiny Bradshaw, Noble Sissle, Spud Murphy, Teddy Powell and Jan Savitt. The emphasis is very much on jazz, and this worthy reissue is overflowing with forgotten classics. The music is programmed in chronological order, so one can experience the evolution of big bands from Duke Ellington, Fletcher Henderson and Luis Russell to postwar recordings from Artie Shaw, Tommy Dorsey and Benny Goodman.

"Strictly speaking, "swing" designates a style of performance in which the emphasis falls on the offbeat. Even so the term "big band swing" is a flexible one, and if your ideas about it center on the style of The Glenn Miller Orchestra you will likely be disappointed with this double disk collection, which ranges in tone from the strict tempos of the Deco era to the bop-inflected sounds popular in post-World War II America.

In the big band era, most popular ballrooms and dance clubs had a "house orchestra," and each strove to create a specific style that would set them apart in the highly competitive world of big band music–and overall this collection does a superior job of capturing both the broad differences and subtle nuances that made each band distinctly different from the rest, as well as giving the listener an overview of the form as it changed over time. Consequently, the selections here are not often the most popular, but rather most indicative.

The emphasis here is really more upon lesser known bands and then-popular but now forgotten releases, including such one-hit wonders as Casa Loma Orchestra, a house band that reached a brief popularity with the "Casa Loma Stomp." Even so, there are famous names aplenty, such as Duke Ellington, The Dorsey Brothers, Count Basie, Chick Webb, Louis Armstrong, Woody Herman, Bennie Goodman, Artie Shaw–and yes, even the inescapable and to my mind slightly overrated Glenn Miller, to name but the most obvious.

Hardcore fans are likely to regret the absence of certain artists and certain tunes–my own complaint is that Cab Calloway is absent from the collection, and it is unfortunate that Artie Shaw is represented by "The Continental" instead of "Begin the Beguine." It is also true that the sound quality, particularly re recordings from the early 1930s, is sometimes problematic; this, however, is inevitable, for early recording techniques were a far cry from current standards. Even so, you'd have to go some to find a collection that so effectively captures the wide array of styles seen in big band music over the course of 25 years of popularity."

Tracklist:

CD1:

01. Duke Ellington - Rockin' in Rhythm
02. Fletcher Anderson - The House of David Blues
03. Luis Russel - Saratoga Drag
04. Mills Blue Rhythm Band - Savage Rhythm
05. Don Redman - Chant of the Weed
06. Dorsey Brothers - St Louis Blues
07. Earl Hines - Rock and Rye
08. Fletcher Anderson - Down South Camp Meeting
09. Jimmy Lunceford - Avalon
10. Claude Hopkins - In the Shade of the Old Apple Tree
11. Tiny Bradshaw - The Darktown Strutter's Ball
12. Noble Sissle - Polka Dot Rag
13. Isham Jones - Stomping at the Savoy
14. Glenn Miller - Peg O' My Heart
15. Count Basie - One O'Clock Jump
16. Casa Loma Orchestra - Casa Loma Stomp
17. Bob Crosby - South Rampart Street Parade
18. Chick Webb - Liza (All the Clouds'll Roll Away)
19. Andy Kirk - Dunkin' a Doughnut
20. Louis Armstrong - You Rascal, You

Exact Audio Copy V1.0 beta 3 from 29. August 2011

EAC extraction logfile from 15. October 2015, 12:40

Various Artists / An Anthology Of Big Band Swing 1930-1955 - CD1

Used drive : HL-DT-STDVDRAM GH24NSB0 Adapter: 5 ID: 0

Read mode : Secure
Utilize accurate stream : Yes
Defeat audio cache : Yes
Make use of C2 pointers : No

Read offset correction : 6
Overread into Lead-In and Lead-Out : No
Fill up missing offset samples with silence : Yes
Delete leading and trailing silent blocks : No
Null samples used in CRC calculations : Yes
Used interface : Native Win32 interface for Win NT & 2000
Gap handling : Appended to previous track

Used output format : User Defined Encoder
Selected bitrate : 1024 kBit/s
Quality : High
Add ID3 tag : No
Command line compressor : C:\Program Files (x86)\Exact Audio Copy\Flac\flac.exe
Additional command line options : -8 -V -T "ARTIST=%artist%" -T "TITLE=%title%" -T "ALBUM=%albumtitle%" -T "DATE=%year%" -T "TRACKNUMBER=%tracknr%" -T "TOTALTRACKS=%numtracks%" -T "GENRE=%genre%" -T "ALBUMARTIST=%albumartist%" -T "ALBUM ARTIST=%albumartist%" -T "COMMENT=EAC Secure Mode, Test & Copy, AccurateRip, FLAC -8" %source%


TOC of the extracted CD

Track | Start | Length | Start sector | End sector
––––––––––––––––––––––––––––-
1 | 0:00.38 | 3:02.02 | 38 | 13689
2 | 3:02.40 | 3:10.50 | 13690 | 27989
3 | 6:13.15 | 3:05.15 | 27990 | 41879
4 | 9:18.30 | 3:06.35 | 41880 | 55864
5 | 12:24.65 | 3:15.38 | 55865 | 70527
6 | 15:40.28 | 3:07.50 | 70528 | 84602
7 | 18:48.03 | 3:13.37 | 84603 | 99114
8 | 22:01.40 | 2:57.63 | 99115 | 112452
9 | 24:59.28 | 3:01.40 | 112453 | 126067
10 | 28:00.68 | 2:49.37 | 126068 | 138779
11 | 30:50.30 | 3:02.45 | 138780 | 152474
12 | 33:53.00 | 2:46.33 | 152475 | 164957
13 | 36:39.33 | 2:47.17 | 164958 | 177499
14 | 39:26.50 | 2:33.20 | 177500 | 188994
15 | 41:59.70 | 3:03.58 | 188995 | 202777
16 | 45:03.53 | 2:42.52 | 202778 | 214979
17 | 47:46.30 | 3:32.38 | 214980 | 230917
18 | 51:18.68 | 2:45.17 | 230918 | 243309
19 | 54:04.10 | 2:51.55 | 243310 | 256189
20 | 56:55.65 | 3:01.48 | 256190 | 269812


Track 1

Filename D:\1\01 - Duke Ellington - Rockin' in Rhythm.wav

Pre-gap length 0:00:02.38

Peak level 90.8 %
Extraction speed 1.0 X
Track quality 100.0 %
Test CRC 0542E6A2
Copy CRC 0542E6A2
Cannot be verified as accurate (confidence 2) [9C207197], AccurateRip returned [87EFFC1C] (AR v2)
Copy OK

Track 2

Filename D:\1\02 - Fletcher Anderson - The House of David Blues.wav

Pre-gap length 0:00:02.20

Peak level 97.2 %
Extraction speed 1.1 X
Track quality 100.0 %
Test CRC BBB8767E
Copy CRC BBB8767E
Cannot be verified as accurate (confidence 2) [22A2EC9D], AccurateRip returned [5896C44B] (AR v2)
Copy OK

Track 3

Filename D:\1\03 - Luis Russel - Saratoga Drag.wav

Pre-gap length 0:00:02.74

Peak level 87.0 %
Extraction speed 1.2 X
Track quality 100.0 %
Test CRC 7481C419
Copy CRC 7481C419
Cannot be verified as accurate (confidence 2) [F62E0B1C], AccurateRip returned [D1B4220D] (AR v2)
Copy OK

Track 4

Filename D:\1\04 - Mills Blue Rhythm Band - Savage Rhythm.wav

Pre-gap length 0:00:01.35

Peak level 95.5 %
Extraction speed 1.2 X
Track quality 100.0 %
Test CRC C8F64D29
Copy CRC C8F64D29
Cannot be verified as accurate (confidence 2) [647FD1A0], AccurateRip returned [56CDC937] (AR v2)
Copy OK

Track 5

Filename D:\1\05 - Don Redman - Chant of the Weed.wav

Pre-gap length 0:00:02.01

Peak level 100.0 %
Extraction speed 1.1 X
Track quality 99.9 %
Test CRC 7A1D8618
Copy CRC 7A1D8618
Cannot be verified as accurate (confidence 2) [F80F5C66], AccurateRip returned [662BD8B7] (AR v2)
Copy OK

Track 6

Filename D:\1\06 - Dorsey Brothers - St Louis Blues.wav

Pre-gap length 0:00:01.44

Peak level 99.7 %
Extraction speed 1.4 X
Track quality 100.0 %
Test CRC 7CC3303C
Copy CRC 7CC3303C
Cannot be verified as accurate (confidence 2) [72140FCE], AccurateRip returned [42C276AC] (AR v2)
Copy OK

Track 7

Filename D:\1\07 - Earl Hines - Rock and Rye.wav

Pre-gap length 0:00:01.45

Peak level 100.0 %
Extraction speed 1.5 X
Track quality 100.0 %
Test CRC 974F72F0
Copy CRC 974F72F0
Cannot be verified as accurate (confidence 2) [0525D53C], AccurateRip returned [345CD008] (AR v2)
Copy OK

Track 8

Filename D:\1\08 - Fletcher Anderson - Down South Camp Meeting.wav

Pre-gap length 0:00:01.61

Peak level 100.0 %
Extraction speed 1.5 X
Track quality 100.0 %
Test CRC B55B642F
Copy CRC B55B642F
Cannot be verified as accurate (confidence 2) [EBFE83A1], AccurateRip returned [E10E8EFC] (AR v2)
Copy OK

Track 9

Filename D:\1\09 - Jimmy Lunceford - Avalon.wav

Pre-gap length 0:00:01.35

Peak level 100.0 %
Extraction speed 1.6 X
Track quality 100.0 %
Test CRC D4E16F71
Copy CRC D4E16F71
Cannot be verified as accurate (confidence 2) [80DA0FCB], AccurateRip returned [89C4A6D3] (AR v2)
Copy OK

Track 10

Filename D:\1\10 - Claude Hopkins - In the Shade of the Old Apple Tree.wav

Pre-gap length 0:00:02.30

Peak level 90.1 %
Extraction speed 1.6 X
Track quality 100.0 %
Test CRC 14D8DEBD
Copy CRC 14D8DEBD
Cannot be verified as accurate (confidence 2) [14264A9A], AccurateRip returned [ABE64B54] (AR v2)
Copy OK

Track 11

Filename D:\1\11 - Tiny Bradshaw - The Darktown Strutter's Ball.wav

Pre-gap length 0:00:01.32

Peak level 100.0 %
Extraction speed 1.4 X
Track quality 99.9 %
Test CRC EC857D7C
Copy CRC EC857D7C
Cannot be verified as accurate (confidence 2) [160BC62A], AccurateRip returned [588E2C85] (AR v2)
Copy OK

Track 12

Filename D:\1\12 - Noble Sissle - Polka Dot Rag.wav

Pre-gap length 0:00:02.21

Peak level 93.4 %
Extraction speed 1.7 X
Track quality 100.0 %
Test CRC 83404314
Copy CRC 83404314
Cannot be verified as accurate (confidence 2) [CD5F349D], AccurateRip returned [CE62271D] (AR v2)
Copy OK

Track 13

Filename D:\1\13 - Isham Jones - Stomping at the Savoy.wav

Pre-gap length 0:00:02.34

Peak level 100.0 %
Extraction speed 1.7 X
Track quality 100.0 %
Test CRC 2FF37E29
Copy CRC 2FF37E29
Cannot be verified as accurate (confidence 2) [36318511], AccurateRip returned [C378E257] (AR v2)
Copy OK

Track 14

Filename D:\1\14 - Glenn Miller - Peg O' My Heart.wav

Pre-gap length 0:00:02.21

Peak level 98.8 %
Extraction speed 1.7 X
Track quality 100.0 %
Test CRC 2BEF03D2
Copy CRC 2BEF03D2
Cannot be verified as accurate (confidence 2) [88D4A5A7], AccurateRip returned [C7524393] (AR v2)
Copy OK

Track 15

Filename D:\1\15 - Count Basie - One O'Clock Jump.wav

Pre-gap length 0:00:04.02

Peak level 95.2 %
Extraction speed 1.9 X
Track quality 100.0 %
Test CRC D70ADD2D
Copy CRC D70ADD2D
Cannot be verified as accurate (confidence 2) [50459793], AccurateRip returned [E4D5F1CA] (AR v2)
Copy OK

Track 16

Filename D:\1\16 - Casa Loma Orchestra - Casa Loma Stomp.wav

Pre-gap length 0:00:02.23

Peak level 100.0 %
Extraction speed 1.6 X
Track quality 99.9 %
Test CRC 3C05BD5E
Copy CRC 3C05BD5E
Cannot be verified as accurate (confidence 2) [49A13CDC], AccurateRip returned [DAD65EBA] (AR v2)
Copy OK

Track 17

Filename D:\1\17 - Bob Crosby - South Rampart Street Parade.wav

Pre-gap length 0:00:02.18

Peak level 92.6 %
Extraction speed 2.0 X
Track quality 100.0 %
Test CRC C932140E
Copy CRC C932140E
Cannot be verified as accurate (confidence 2) [36622B3E], AccurateRip returned [0E58EFE1] (AR v2)
Copy OK

Track 18

Filename D:\1\18 - Chick Webb - Liza (All the Clouds'll Roll Away).wav

Pre-gap length 0:00:01.17

Peak level 100.0 %
Extraction speed 2.0 X
Track quality 100.0 %
Test CRC 1095B0ED
Copy CRC 1095B0ED
Cannot be verified as accurate (confidence 2) [4287C8BA], AccurateRip returned [60F8899B] (AR v2)
Copy OK

Track 19

Filename D:\1\19 - Andy Kirk - Dunkin' a Doughnut.wav

Pre-gap length 0:00:03.02

Peak level 90.1 %
Extraction speed 2.1 X
Track quality 100.0 %
Test CRC 7F6BA941
Copy CRC 7F6BA941
Cannot be verified as accurate (confidence 2) [9B1D8134], AccurateRip returned [D85780D2] (AR v2)
Copy OK

Track 20

Filename D:\1\20 - Louis Armstrong - You Rascal, You.wav

Pre-gap length 0:00:01.71

Peak level 100.0 %
Extraction speed 2.1 X
Track quality 100.0 %
Test CRC 577819BC
Copy CRC 577819BC
Cannot be verified as accurate (confidence 2) [3EF89B11], AccurateRip returned [70C6A656] (AR v2)
Copy OK


No tracks could be verified as accurate
You may have a different pressing from the one(s) in the database

No errors occurred

End of status report

==== Log checksum E1E837FA7CCDCDA7A72EEBE9B98EA1071CF451F2347404F3974D590F41067807 ====

foobar2000 1.3 / Dynamic Range Meter 1.1.1
log date: 2015-10-31 14:11:17

––––––––––––––––––––––––––––––––––––––––
Analyzed: Andy Kirk / An Anthology Of Big Band Swing 1930-1955 - CD1 (1)
Bob Crosby / An Anthology Of Big Band Swing 1930-1955 - CD1 (2)
Casa Loma Orchestra / An Anthology Of Big Band Swing 1930-1955 - CD1 (3)
Chick Webb / An Anthology Of Big Band Swing 1930-1955 - CD1 (4)
Claude Hopkins / An Anthology Of Big Band Swing 1930-1955 - CD1 (5)
Count Basie / An Anthology Of Big Band Swing 1930-1955 - CD1 (6)
Don Redman / An Anthology Of Big Band Swing 1930-1955 - CD1 (7)
Dorsey Brothers / An Anthology Of Big Band Swing 1930-1955 - CD1 (8)
Duke Ellington / An Anthology Of Big Band Swing 1930-1955 - CD1 (9)
Earl Hines / An Anthology Of Big Band Swing 1930-1955 - CD1 (10)
Fletcher Anderson / An Anthology Of Big Band Swing 1930-1955 - CD1 (11-12)
Glenn Miller / An Anthology Of Big Band Swing 1930-1955 - CD1 (13)
Isham Jones / An Anthology Of Big Band Swing 1930-1955 - CD1 (14)
Jimmy Lunceford / An Anthology Of Big Band Swing 1930-1955 - CD1 (15)
Louis Armstrong / An Anthology Of Big Band Swing 1930-1955 - CD1 (16)
Luis Russel / An Anthology Of Big Band Swing 1930-1955 - CD1 (17)
Mills Blue Rhythm Band / An Anthology Of Big Band Swing 1930-1955 - CD1 (18)
Noble Sissle / An Anthology Of Big Band Swing 1930-1955 - CD1 (19)
Tiny Bradshaw / An Anthology Of Big Band Swing 1930-1955 - CD1 (20)
––––––––––––––––––––––––––––––––––––––––

DR Peak RMS Duration Track
––––––––––––––––––––––––––––––––––––––––
DR13 -0.90 dB -16.15 dB 2:52 19-Dunkin' a Doughnut
DR10 -0.66 dB -13.39 dB 3:33 17-South Rampart Street Parade
DR12 0.00 dB -13.77 dB 2:43 16-Casa Loma Stomp
DR15 0.00 dB -17.50 dB 2:45 18-Liza (All the Clouds'll Roll Away)
DR12 -0.90 dB -14.56 dB 2:49 10-In the Shade of the Old Apple Tree
DR14 -0.43 dB -17.01 dB 3:04 15-One O'Clock Jump
DR12 0.00 dB -14.95 dB 3:16 05-Chant of the Weed
DR13 -0.03 dB -15.86 dB 3:08 06-St Louis Blues
DR10 -0.84 dB -13.29 dB 3:02 01-Rockin' in Rhythm
DR11 0.00 dB -13.17 dB 3:13 07-Rock and Rye
DR11 -0.24 dB -13.43 dB 3:11 02-The House of David Blues
DR14 0.00 dB -16.12 dB 2:58 08-Down South Camp Meeting
DR12 -0.10 dB -15.10 dB 2:33 14-Peg O' My Heart
DR14 0.00 dB -15.81 dB 2:47 13-Stomping at the Savoy
DR14 0.00 dB -16.96 dB 3:02 09-Avalon
DR10 0.00 dB -12.76 dB 3:02 20-You Rascal, You
DR10 -1.20 dB -12.17 dB 3:05 03-Saratoga Drag
DR12 -0.40 dB -13.93 dB 3:06 04-Savage Rhythm
DR11 -0.59 dB -14.41 dB 2:46 12-Polka Dot Rag
DR14 0.00 dB -16.47 dB 3:03 11-The Darktown Strutter's Ball
––––––––––––––––––––––––––––––––––––––––

Number of tracks: 20
Official DR value: DR12

Samplerate: 44100 Hz
Channels: 2
Bits per sample: 16
Bitrate: 387 kbps
Codec: FLAC
================================================================================


CD2:

01. Count Basie - Panassie Stomp
02. Spud Murphy - Transcontinental
03. Teddy Powell - Jamaica Jam
04. Benny Carter - Okay For Baby
05. Jan Savitt - Blues in the Groove
06. Jimmy Dorsey - Murderistic
07. Jay McShann - Swingmatism
08. Lucky Millinder - Savoy
09. Jack Teagarden - Blue River
10. Muggsy Spanier - Chicago
11. Roy Eldridge - Fish Market
12. Stan Kenton - Gambler's Blues
13. Woody Herman - I've Got You Under My Skin
14. Charlie Barnet - Skyliner
15. Lionel Hampton - Million Dollar Smile
16. Duke Ellington - Midriff
17. Erskine Hawkins - Bear Mash Blues
18. Artie Shaw - The Continental
19. Tommy Dorsey - The Blue Room
20. Benny Goodman - One O' Clock Jump

Exact Audio Copy V1.0 beta 3 from 29. August 2011

EAC extraction logfile from 15. October 2015, 14:08

Various Artists / An Anthology Of Big Band Swing 1930-1955 - CD2

Used drive : HL-DT-STDVDRAM GH24NSB0 Adapter: 5 ID: 0

Read mode : Secure
Utilize accurate stream : Yes
Defeat audio cache : Yes
Make use of C2 pointers : No

Read offset correction : 6
Overread into Lead-In and Lead-Out : No
Fill up missing offset samples with silence : Yes
Delete leading and trailing silent blocks : No
Null samples used in CRC calculations : Yes
Used interface : Native Win32 interface for Win NT & 2000
Gap handling : Appended to previous track

Used output format : User Defined Encoder
Selected bitrate : 1024 kBit/s
Quality : High
Add ID3 tag : No
Command line compressor : C:\Program Files (x86)\Exact Audio Copy\Flac\flac.exe
Additional command line options : -8 -V -T "ARTIST=%artist%" -T "TITLE=%title%" -T "ALBUM=%albumtitle%" -T "DATE=%year%" -T "TRACKNUMBER=%tracknr%" -T "TOTALTRACKS=%numtracks%" -T "GENRE=%genre%" -T "ALBUMARTIST=%albumartist%" -T "ALBUM ARTIST=%albumartist%" -T "COMMENT=EAC Secure Mode, Test & Copy, AccurateRip, FLAC -8" %source%


TOC of the extracted CD

Track | Start | Length | Start sector | End sector
––––––––––––––––––––––––––––-
1 | 0:00.33 | 2:50.00 | 33 | 12782
2 | 2:50.33 | 2:57.60 | 12783 | 26117
3 | 5:48.18 | 2:43.40 | 26118 | 38382
4 | 8:31.58 | 2:59.50 | 38383 | 51857
5 | 11:31.33 | 3:04.20 | 51858 | 65677
6 | 14:35.53 | 2:51.45 | 65678 | 78547
7 | 17:27.23 | 2:38.07 | 78548 | 90404
8 | 20:05.30 | 3:04.70 | 90405 | 104274
9 | 23:10.25 | 3:13.28 | 104275 | 118777
10 | 26:23.53 | 2:36.55 | 118778 | 130532
11 | 29:00.33 | 3:13.62 | 130533 | 145069
12 | 32:14.20 | 4:29.50 | 145070 | 165294
13 | 36:43.70 | 2:56.20 | 165295 | 178514
14 | 39:40.15 | 3:02.18 | 178515 | 192182
15 | 42:42.33 | 3:07.15 | 192183 | 206222
16 | 45:49.48 | 3:23.50 | 206223 | 221497
17 | 49:13.23 | 2:57.17 | 221498 | 234789
18 | 52:10.40 | 3:10.18 | 234790 | 249057
19 | 55:20.58 | 3:20.52 | 249058 | 264109
20 | 58:41.35 | 3:09.73 | 264110 | 278357


Track 1

Filename D:\1\01 - Count Basie - Panassie Stomp.wav

Pre-gap length 0:00:02.33

Peak level 90.3 %
Extraction speed 0.9 X
Track quality 99.9 %
Test CRC EF58DF3F
Copy CRC EF58DF3F
Accurately ripped (confidence 1) [050B70FC] (AR v2)
Copy OK

Track 2

Filename D:\1\02 - Spud Murphy - Transcontinental.wav

Pre-gap length 0:00:01.60

Peak level 86.0 %
Extraction speed 1.1 X
Track quality 100.0 %
Test CRC 016747CB
Copy CRC 016747CB
Accurately ripped (confidence 1) [40465B24] (AR v2)
Copy OK

Track 3

Filename D:\1\03 - Teddy Powell - Jamaica Jam.wav

Pre-gap length 0:00:01.48

Peak level 100.0 %
Extraction speed 1.2 X
Track quality 100.0 %
Test CRC 5DF03EA3
Copy CRC 5DF03EA3
Accurately ripped (confidence 1) [F4FC773E] (AR v2)
Copy OK

Track 4

Filename D:\1\04 - Benny Carter - Okay For Baby.wav

Pre-gap length 0:00:02.38

Peak level 99.6 %
Extraction speed 1.3 X
Track quality 100.0 %
Test CRC D448AD82
Copy CRC D448AD82
Accurately ripped (confidence 1) [CA1ACC31] (AR v2)
Copy OK

Track 5

Filename D:\1\05 - Jan Savitt - Blues in the Groove.wav

Pre-gap length 0:00:02.00

Peak level 94.4 %
Extraction speed 1.1 X
Track quality 99.9 %
Test CRC 2FA396B7
Copy CRC 2FA396B7
Accurately ripped (confidence 1) [4BAB52B8] (AR v2)
Copy OK

Track 6

Filename D:\1\06 - Jimmy Dorsey - Murderistic.wav

Pre-gap length 0:00:01.73

Peak level 97.0 %
Extraction speed 1.4 X
Track quality 100.0 %
Test CRC 3EE187C4
Copy CRC 3EE187C4
Accurately ripped (confidence 1) [4198FDFA] (AR v2)
Copy OK

Track 7

Filename D:\1\07 - Jay McShann - Swingmatism.wav

Pre-gap length 0:00:01.73

Peak level 100.0 %
Extraction speed 1.4 X
Track quality 100.0 %
Test CRC 01BB0C24
Copy CRC 01BB0C24
Accurately ripped (confidence 1) [1F899068] (AR v2)
Copy OK

Track 8

Filename D:\1\08 - Lucky Millinder - Savoy.wav

Pre-gap length 0:00:01.42

Peak level 98.5 %
Extraction speed 1.3 X
Track quality 99.9 %
Test CRC 45ADC5AD
Copy CRC 45ADC5AD
Accurately ripped (confidence 1) [595251F4] (AR v2)
Copy OK

Track 9

Filename D:\1\09 - Jack Teagarden - Blue River.wav

Pre-gap length 0:00:01.72

Peak level 100.0 %
Extraction speed 1.6 X
Track quality 100.0 %
Test CRC 13850631
Copy CRC 13850631
Accurately ripped (confidence 1) [47AA2693] (AR v2)
Copy OK

Track 10

Filename D:\1\10 - Muggsy Spanier - Chicago.wav

Pre-gap length 0:00:02.00

Peak level 81.5 %
Extraction speed 1.6 X
Track quality 100.0 %
Test CRC 6916B2E5
Copy CRC 6916B2E5
Accurately ripped (confidence 1) [A01C73E2] (AR v2)
Copy OK

Track 11

Filename D:\1\11 - Roy Eldridge - Fish Market.wav

Pre-gap length 0:00:02.28

Peak level 97.4 %
Extraction speed 1.7 X
Track quality 100.0 %
Test CRC 7640002A
Copy CRC 7640002A
Accurately ripped (confidence 1) [D48FB8FD] (AR v2)
Copy OK

Track 12

Filename D:\1\12 - Stan Kenton - Gambler's Blues.wav

Pre-gap length 0:00:03.40

Peak level 99.7 %
Extraction speed 1.9 X
Track quality 100.0 %
Test CRC B89B14B6
Copy CRC B89B14B6
Accurately ripped (confidence 1) [FCC058BB] (AR v2)
Copy OK

Track 13

Filename D:\1\13 - Woody Herman - I've Got You Under My Skin.wav

Pre-gap length 0:00:01.45

Peak level 99.8 %
Extraction speed 1.5 X
Track quality 99.9 %
Test CRC D51E4604
Copy CRC D51E4604
Accurately ripped (confidence 1) [26020044] (AR v2)
Copy OK

Track 14

Filename D:\1\14 - Charlie Barnet - Skyliner.wav

Pre-gap length 0:00:02.47

Peak level 89.9 %
Extraction speed 1.6 X
Track quality 99.9 %
Test CRC B65B3D27
Copy CRC B65B3D27
Accurately ripped (confidence 1) [468CC251] (AR v2)
Copy OK

Track 15

Filename D:\1\15 - Lionel Hampton - Million Dollar Smile.wav

Pre-gap length 0:00:01.55

Peak level 98.7 %
Extraction speed 1.7 X
Track quality 99.9 %
Test CRC C6BDA268
Copy CRC C6BDA268
Accurately ripped (confidence 1) [747C6766] (AR v1)
Copy OK

Track 16

Filename D:\1\16 - Duke Ellington - Midriff.wav

Pre-gap length 0:00:01.18

Peak level 99.7 %
Extraction speed 2.0 X
Track quality 100.0 %
Test CRC 8548A2A9
Copy CRC 8548A2A9
Accurately ripped (confidence 1) [9B998170] (AR v2)
Copy OK

Track 17

Filename D:\1\17 - Erskine Hawkins - Bear Mash Blues.wav

Pre-gap length 0:00:02.10

Peak level 100.0 %
Extraction speed 2.0 X
Track quality 100.0 %
Test CRC 4BD738E8
Copy CRC 4BD738E8
Accurately ripped (confidence 1) [48D17E8C] (AR v2)
Copy OK

Track 18

Filename D:\1\18 - Artie Shaw - The Continental.wav

Pre-gap length 0:00:02.37

Peak level 93.5 %
Extraction speed 1.8 X
Track quality 99.9 %
Test CRC 7E7691D4
Copy CRC 7E7691D4
Accurately ripped (confidence 1) [701F3ECC] (AR v2)
Copy OK

Track 19

Filename D:\1\19 - Tommy Dorsey - The Blue Room.wav

Pre-gap length 0:00:02.45

Peak level 97.0 %
Extraction speed 2.2 X
Track quality 100.0 %
Test CRC 7FD3C70E
Copy CRC 7FD3C70E
Accurately ripped (confidence 1) [DDE4E491] (AR v2)
Copy OK

Track 20

Filename D:\1\20 - Benny Goodman - One O' Clock Jump.wav

Pre-gap length 0:00:01.32

Peak level 94.3 %
Extraction speed 2.2 X
Track quality 100.0 %
Test CRC 911AD791
Copy CRC 911AD791
Accurately ripped (confidence 1) [7698EF94] (AR v2)
Copy OK


All tracks accurately ripped

No errors occurred

End of status report

==== Log checksum DA65B0A37F93B647F177E3E8C269105E1082A44E4D5601CBF2F7B42EF10BFB64 ====

foobar2000 1.3 / Dynamic Range Meter 1.1.1
log date: 2015-10-31 14:11:32

––––––––––––––––––––––––––––––––––––––––
Analyzed: Artie Shaw / An Anthology Of Big Band Swing 1930-1955 - CD2 (1)
Benny Carter / An Anthology Of Big Band Swing 1930-1955 - CD2 (2)
Benny Goodman / An Anthology Of Big Band Swing 1930-1955 - CD2 (3)
Charlie Barnet / An Anthology Of Big Band Swing 1930-1955 - CD2 (4)
Count Basie / An Anthology Of Big Band Swing 1930-1955 - CD2 (5)
Duke Ellington / An Anthology Of Big Band Swing 1930-1955 - CD2 (6)
Erskine Hawkins / An Anthology Of Big Band Swing 1930-1955 - CD2 (7)
Jack Teagarden / An Anthology Of Big Band Swing 1930-1955 - CD2 (8)
Jan Savitt / An Anthology Of Big Band Swing 1930-1955 - CD2 (9)
Jay McShann / An Anthology Of Big Band Swing 1930-1955 - CD2 (10)
Jimmy Dorsey / An Anthology Of Big Band Swing 1930-1955 - CD2 (11)
Lionel Hampton / An Anthology Of Big Band Swing 1930-1955 - CD2 (12)
Lucky Millinder / An Anthology Of Big Band Swing 1930-1955 - CD2 (13)
Muggsy Spanier / An Anthology Of Big Band Swing 1930-1955 - CD2 (14)
Roy Eldridge / An Anthology Of Big Band Swing 1930-1955 - CD2 (15)
Spud Murphy / An Anthology Of Big Band Swing 1930-1955 - CD2 (16)
Stan Kenton / An Anthology Of Big Band Swing 1930-1955 - CD2 (17)
Teddy Powell / An Anthology Of Big Band Swing 1930-1955 - CD2 (18)
Tommy Dorsey / An Anthology Of Big Band Swing 1930-1955 - CD2 (19)
Woody Herman / An Anthology Of Big Band Swing 1930-1955 - CD2 (20)
––––––––––––––––––––––––––––––––––––––––

DR Peak RMS Duration Track
––––––––––––––––––––––––––––––––––––––––
DR13 -0.58 dB -15.35 dB 3:10 18-The Continental
DR14 -0.03 dB -16.58 dB 3:00 04-Okay For Baby
DR9 -0.50 dB -13.35 dB 3:10 20-One O' Clock Jump
DR11 -0.92 dB -15.95 dB 3:02 14-Skyliner
DR12 -0.88 dB -16.08 dB 2:50 01-Panassie Stomp
DR15 -0.02 dB -17.10 dB 3:24 16-Midriff
DR14 0.00 dB -15.97 dB 2:57 17-Bear Mash Blues
DR12 0.00 dB -15.12 dB 3:13 09-Blue River
DR13 -0.50 dB -15.17 dB 3:04 05-Blues in the Groove
DR13 0.00 dB -15.47 dB 2:38 07-Swingmatism
DR10 -0.26 dB -13.60 dB 2:52 06-Murderistic
DR11 -0.11 dB -14.38 dB 3:07 15-Million Dollar Smile
DR13 -0.13 dB -15.44 dB 3:05 08-Savoy
DR11 -1.78 dB -14.86 dB 2:37 10-Chicago
DR13 -0.23 dB -16.64 dB 3:14 11-Fish Market
DR11 -1.30 dB -13.65 dB 2:58 02-Transcontinental
DR11 -0.02 dB -14.84 dB 4:30 12-Gambler's Blues
DR15 0.00 dB -17.05 dB 2:44 03-Jamaica Jam
DR14 -0.26 dB -16.94 dB 3:21 19-The Blue Room
DR12 -0.02 dB -14.26 dB 2:56 13-I've Got You Under My Skin
––––––––––––––––––––––––––––––––––––––––

Number of tracks: 20
Official DR value: DR12

Samplerate: 44100 Hz
Channels: 2
Bits per sample: 16
Bitrate: 368 kbps
Codec: FLAC
================================================================================


All thanks to the original uploader: hixius