Subcategories

VA - Bob Dylan: The 30th Anniversary Concert Celebration (1993) [2014, Deluxe Edition]

Posted By: jclane
VA - Bob Dylan: The 30th Anniversary Concert Celebration (1993) [2014, Deluxe Edition]

VA - Bob Dylan: The 30th Anniversary Concert Celebration (1993) [2014, Deluxe Edition]
EAC Rip | 2CDs | FLAC Image + Cue + Log - 1.04 GB | MP3 CBR @320 kbps - 378 MB | Full scans - 240 MB
Label: Columbia Records / Sony Music Entertainment | Catalog.#: 88843034102 | Genre: Folk Rock, Pop Roc

To commemorate 30 years since the release of Dylan's first Columbia album, a marathon tribute concert was held at New York's Madison Square Garden, with a galaxy of stars and voices from the past taking part. The cumulative effect of this tribute was staggering, revealing just how much truly great Dylan material there is to choose from all of his periods. A firm nucleus of the three surviving members of Booker T. & the MG's, plus G.E. Smith on guitar and Jim Keltner and Anton Fig on drums, anchors the bands, and most of the stars offer fresh slants on songs familiar and obscure. Among the more memorable interpretations are Richie Havens' moving "Just Like a Woman," completely within his style; the Clancy Brothers' fervent conversion of "When the Ship Comes In" to an Irish folk idiom; the swinging, countrified "You Ain't Goin' Nowhere" from Mary Chapin Carpenter, Shawn Colvin, and Rosanne Cash; and a sullen "Masters of War" by Eddie Vedder and Mike McCready on acoustic guitars. Lou Reed went through the bootlegs to come up with the pounding "Foot of Pride," which is perfectly suited to Reed's declamatory style. Eric Clapton shrugs off his diffident manner to deliver one of the most electrifying performances of his life in "Don't Think Twice, It's All Right" – each guitar lick and vocal cuts angrily to the bone – and George Harrison makes his first U.S. concert appearance in 18 years with "Absolutely Sweet Marie." Dylan himself appears at the end, wildly improvisational and harshly authentic in voice on "It's Alright, Ma" and "Girl of the North Country." By no means does this box contain the entire concert, though, and while the reason was probably to make the thing fit on two well-packed CDs, some of the deletions are inexplicable. To cite just a few examples, Harrison's "If Not for You" is missing; so are Clapton's "Love Minus Zero, No Limit" and some numbers by Booker T. & the MG's ("Gotta Serve Somebody" and "Lay Lady Lay" are in Stax's Time Is Tight box). Even Dylan's own performance of "Song to Woody" is not here; the booklet pleads "technical problems" but it sounded fine on the live telecast. Nevertheless, enough of the concert is here to suggest its triumph – and all were reminded that the fountainhead of all of this music was still alive, creative, and unwilling to be consigned to the history books.

CD1

01. John Mellencamp - Like A Rolling Stone - 6:54
02. John Mellencamp - Leopard-Skin Pill-Box Hat - 4:15
03. Kris Kristofferson - {Introduction #1 by Kris Kristofferson} - 1:02
04. Stevie Wonder - Blowin' In The Wind - 6:18
05. Lou Reed - Foot Of Pride - 8:47
06. Eddie Vedder & Mike McCready - Masters Of War - 5:05
07. Tracy Chapman - The Times They Are A-Changin' - 3:02
08. Kris Kristofferson - (Introduction #2 By Kris Kristofferson) - 0:34
09. June Carter & Johnny Cash - It Ain't Me Babe - 3:14
10. Willie Nelson - What Was It You Wanted - 5:46
11. Kris Kristofferson - I'll Be You're Baby Tonight - 3:05
12. Johnny Winter - Highway 61 Revisted - 5:00
13. Ron Wood - Seven Days - 5:26
14. Richie Havens - Just Like A Woman - 5:51
15. The Clancy Brothers & Robbie O'Connell with special guest Tommy Makem - When The Ship Comes In - 4:13
16. Johnny Cash - (Introduction by Johnny Cash) - 0:24
17. Mary Chapin Carpenter, Rosanne Cash & Shawn Colvin - You Ain't Goin' Nowhere - 3:29
18. Eric Clapton - Don't Think Twice, It's All Right - 6:27


Exact Audio Copy V1.0 beta 3 from 29. August 2011

EAC extraction logfile from 29. March 2014, 15:53

Bob Dylan / The 30th Anniversary Concert

Used drive : PLEXTOR DVDR PX-L890SA Adapter: 1 ID: 0

Read mode : Secure
Utilize accurate stream : Yes
Defeat audio cache : Yes
Make use of C2 pointers : No

Read offset correction : 6
Overread into Lead-In and Lead-Out : No
Fill up missing offset samples with silence : Yes
Delete leading and trailing silent blocks : No
Null samples used in CRC calculations : Yes
Used interface : Native Win32 interface for Win NT & 2000

Used output format : User Defined Encoder
Selected bitrate : 768 kBit/s
Quality : High
Add ID3 tag : No
Command line compressor : G:\Program Files\Exact Audio Copy\FLAC\FLAC.EXE
Additional command line options : -V -8 -T "Date=%year%" -T "Genre=%genre%" %source%


TOC of the extracted CD

Track | Start | Length | Start sector | End sector
––––––––––––––––––––––––––––-
1 | 0:00.00 | 6:54.72 | 0 | 31121
2 | 6:54.72 | 4:15.63 | 31122 | 50309
3 | 11:10.60 | 1:02.55 | 50310 | 55014
4 | 12:13.40 | 6:18.08 | 55015 | 83372
5 | 18:31.48 | 8:47.42 | 83373 | 122939
6 | 27:19.15 | 5:05.67 | 122940 | 145881
7 | 32:25.07 | 3:02.15 | 145882 | 159546
8 | 35:27.22 | 0:34.67 | 159547 | 162163
9 | 36:02.14 | 3:14.69 | 162164 | 176782
10 | 39:17.08 | 5:46.48 | 176783 | 202780
11 | 45:03.56 | 3:05.01 | 202781 | 216656
12 | 48:08.57 | 5:00.35 | 216657 | 239191
13 | 53:09.17 | 5:26.22 | 239192 | 263663
14 | 58:35.39 | 5:51.00 | 263664 | 289988
15 | 64:26.39 | 4:13.13 | 289989 | 308976
16 | 68:39.52 | 0:24.60 | 308977 | 310836
17 | 69:04.37 | 3:29.41 | 310837 | 326552
18 | 72:34.03 | 6:27.55 | 326553 | 355632


Range status and errors

Selected range

Filename H:\MUSIC\DYLAN\1993. Bob Dylan - The 30th Anniversary Concert Celebration (Columbia-Legacy 88843034102, EU)\The 30th Anniversary Concert (CD1).wav

Peak level 93.4 %
Extraction speed 6.9 X
Range quality 100.0 %
Test CRC BC391798
Copy CRC BC391798
Copy OK

No errors occurred


AccurateRip summary

Track 1 not present in database
Track 2 not present in database
Track 3 not present in database
Track 4 not present in database
Track 5 not present in database
Track 6 not present in database
Track 7 not present in database
Track 8 not present in database
Track 9 not present in database
Track 10 not present in database
Track 11 not present in database
Track 12 not present in database
Track 13 not present in database
Track 14 not present in database
Track 15 not present in database
Track 16 not present in database
Track 17 not present in database
Track 18 not present in database

None of the tracks are present in the AccurateRip database

End of status report

==== Log checksum D490A8BB3C659DA6A0DFDB7AABF14E9DEF7F2B2ABDBB9D010434434E2146DC92 ====


[CUETools log; Date: 29.03.2014 19:58:13; Version: 2.1.2a]
[CTDB TOCID: J_2XQc1NX0aotrg2FmHQZR1Npcc-] found.
[ CTDBID ] Status
[db868914] (1/1) No match
[AccurateRip ID: 00356d6b-02bd3dbc-02128512] disk not present in database.

Track Peak [ CRC32 ] [W/O NULL] [ LOG ]
– 93,4 [BC391798] [A17ABDAB] CRC32
01 93,4 [D06C4524] [C0147CAB]
02 91,7 [92E5CAF0] [0E8510A2]
03 84,1 [C48A6C08] [54B90A83]
04 92,5 [E5EB0F05] [8721160D]
05 91,4 [B4AC70C5] [C3A376D5]
06 90,4 [BFEE79CA] [98EF088C]
07 93,1 [6ADF3B1D] [3B22D92A]
08 71,4 [1728C626] [6B93E670]
09 91,0 [B170D27E] [C9DB73C0]
10 91,7 [CF10590C] [90CC6D17]
11 90,6 [59238FD8] [8D76A313]
12 90,8 [39455003] [E5546B5E]
13 91,3 [FFA63F27] [1FFA3662]
14 93,3 [2B81E65E] [22C8B25D]
15 90,8 [EB309A57] [4CF59C05]
16 75,6 [8A86176D] [B6980088]
17 90,5 [4DE3E75B] [00F25C15]
18 90,6 [3F105BDA] [DA939711]


CD2

01. Neil Young - Just Like Tom Thumb's Blues - 5:40
02. Neil Young - All Along The Watchtower - 6:14
03. Chrissie Hynde - I Shall Be Released - 4:26
04. Eric Clapton - Don't Think Twice, It's All Right - 6:10
05. The O'Jays - Emotionally Yours - 5:59
06. The Band - When I Paint My Masterpiece - 4:21
07. George Harrison - Absolutely Sweet Marie - 4:43
08. Tom Petty & Heartbreakers - License To Kill - 4:38
09. Tom Petty & Heartbreakers - Rainy Day Women #12 & 35 - 4:59
10. Roger McGuinn - Mr. Tambourine Man - 3:55
11. It's Alright Ma (I'm Only Bleeding) - 6:21
12. Bob Dylan, Roger McGuinn, Tom Petty, Neil Young, Eric Clapton & George Harrison - My Back Pages - 4:39
13. Bob Dylan, Roger McGuinn, Tom Petty, Neil Young, Eric Clapton, George Harrison, John Mellencamp, Stevie Wonder, Lou Reed, Eddie Vedder, Mike McCready, Tracy Chapman, June Carter, Johnny Cash, Willie Nelson, Kris Kristofferson, Johnny Winter, Ron Wood, Ric - Knockin' On Heaven's Door - 5:38
14. Girl From The North Country - 5:17
15. Sinéad O'Connor - I Believe In You - 6:20


Exact Audio Copy V1.0 beta 3 from 29. August 2011

EAC extraction logfile from 29. March 2014, 17:44

Bob Dylan / The 30 th Anniversary Concert Celebration

Used drive : PLEXTOR DVDR PX-L890SA Adapter: 1 ID: 0

Read mode : Secure
Utilize accurate stream : Yes
Defeat audio cache : Yes
Make use of C2 pointers : No

Read offset correction : 6
Overread into Lead-In and Lead-Out : No
Fill up missing offset samples with silence : Yes
Delete leading and trailing silent blocks : No
Null samples used in CRC calculations : Yes
Used interface : Native Win32 interface for Win NT & 2000

Used output format : User Defined Encoder
Selected bitrate : 768 kBit/s
Quality : High
Add ID3 tag : No
Command line compressor : G:\Program Files\Exact Audio Copy\FLAC\FLAC.EXE
Additional command line options : -V -8 -T "Date=%year%" -T "Genre=%genre%" %source%


TOC of the extracted CD

Track | Start | Length | Start sector | End sector
––––––––––––––––––––––––––––-
1 | 0:00.00 | 5:40.22 | 0 | 25521
2 | 5:40.22 | 6:14.57 | 25522 | 53628
3 | 11:55.04 | 4:26.04 | 53629 | 73582
4 | 16:21.08 | 6:10.03 | 73583 | 101335
5 | 22:31.11 | 5:59.16 | 101336 | 128276
6 | 28:30.27 | 4:21.62 | 128277 | 147913
7 | 32:52.14 | 4:43.18 | 147914 | 169156
8 | 37:35.32 | 4:38.33 | 169157 | 190039
9 | 42:13.65 | 4:59.58 | 190040 | 212522
10 | 47:13.48 | 3:55.24 | 212523 | 230171
11 | 51:08.72 | 6:21.25 | 230172 | 258771
12 | 57:30.22 | 4:39.68 | 258772 | 279764
13 | 62:10.15 | 5:38.17 | 279765 | 305131
14 | 67:48.32 | 5:17.05 | 305132 | 328911
15 | 73:05.37 | 6:20.65 | 328912 | 357476


Range status and errors

Selected range

Filename H:\MUSIC\DYLAN\1993. Bob Dylan - The 30th Anniversary Concert Celebration (Columbia-Legacy 88843034102, EU)\The 30th Anniversary Concert (CD2).wav

Peak level 92.6 %
Extraction speed 7.0 X
Range quality 100.0 %
Test CRC 044FD484
Copy CRC 044FD484
Copy OK

No errors occurred


AccurateRip summary

Track 1 not present in database
Track 2 not present in database
Track 3 not present in database
Track 4 not present in database
Track 5 not present in database
Track 6 not present in database
Track 7 not present in database
Track 8 not present in database
Track 9 not present in database
Track 10 not present in database
Track 11 not present in database
Track 12 not present in database
Track 13 not present in database
Track 14 not present in database
Track 15 not present in database

None of the tracks are present in the AccurateRip database

End of status report

==== Log checksum 47BBB6F7929EF5ED6C39ACBDD7ED9ED7F18F8222D9CBC4B5CFA6C09B4A2CD2E1 ====


[CUETools log; Date: 29.03.2014 19:58:59; Version: 2.1.2a]
[CTDB TOCID: fGHEWJaRxXDXjlDwZHOskaT_R2I-] found.
[ CTDBID ] Status
[08c55936] (2/2) Accurately ripped
[AccurateRip ID: 002bac83-01eb6d1f-d3129e0f] disk not present in database.

Track Peak [ CRC32 ] [W/O NULL] [ LOG ]
– 92,6 [044FD484] [4CE651A4] CRC32
01 91,9 [05DDDB06] [0AD21259]
02 91,4 [7A568708] [1F4F93E8]
03 91,6 [9CBE4A7E] [BCE2367B]
04 91,8 [05E3603E] [A6F0567B]
05 91,5 [110A0EC0] [D0EFB318]
06 91,2 [446C9D85] [90ED98DC]
07 92,6 [60129BA4] [5E6B515C]
08 90,8 [56A7CD62] [1CFE7635]
09 92,5 [E4CB1281] [4FF4D8CA]
10 91,6 [97D214BA] [8B91D981]
11 91,2 [E3F4BC1D] [07A94A76]
12 91,1 [A32818BD] [1244ACCF]
13 90,7 [C0081CA7] [79A15F03]
14 90,9 [9E834F02] [7B946461]
15 83,9 [549F6ED2] [45B76359]


Original Released: 1993
Recorded Date: October 16, 1992
Deluxe Edition Released Date: 2014
Format: 2 x CD, Live Compilation, Tribute
Length: 158:27

VA - Bob Dylan: The 30th Anniversary Concert Celebration (1993) [2014, Deluxe Edition]

VA - Bob Dylan: The 30th Anniversary Concert Celebration (1993) [2014, Deluxe Edition]
VA - Bob Dylan: The 30th Anniversary Concert Celebration (1993) [2014, Deluxe Edition]

Ripped by snakesharmer

Dead Links? please send me a private message.