Subcategories

Mel Torme, Anita O'Day, Chet Baker, Nina Simone & others - Cocktail Jazz [Recorded 1953-1993] (2008)

Posted By: gribovar
Mel Torme, Anita O'Day, Chet Baker, Nina Simone & others - Cocktail Jazz [Recorded 1953-1993] (2008)

Mel Torme, Anita O'Day, Chet Baker, Nina Simone & others - Cocktail Jazz [Recorded 1953-1993] (2008)
EAC Rip | FLAC (image+.cue+log) - 370 MB | MP3 CBR 320 kbps (LAME 3.93) - 163 MB | Covers (4 MB) included
Genre: Jazz, Vocal Jazz | RAR 3% Rec. | Label: Universal Music (06007 5312276)

The Jazz Club series is an attractive addition to the Verve catalogue. With it's modern design and popular choice of repertoire, the Jazz Club is not only opened for Jazz fans, but for everyone that loves good music.
Tracklist:
01. Mel Tormé - 'Round Midnight
02. Blossom Dearie - Manhattan
03. Count Basie - Watermelon Man
04. Shirley Horn - Hit The Road, Jack
05. Benny Carter & His Orchestra - Body & Soul
06. Anita O'Day - Waiter, Make Mine Blues
07. Xavier Cugat - Blue Champagne
08. Machito & His Afro-Cuban Orchestra - Cocktails For Two
09. Jimmy Smith - One Mint Julep
10. Nina Simone - Lilac Wine
11. Wes Montgomery - Tequila
12. Chet Baker - When Your Lover Has Gone
13. Buddy Rich Septet - Bloody Mary
14. Carmen McRae - My Funny Valentine
15. Willi "The Lion" Smith - Moonlight Cocktail
16. Coleman Hawkins Quartet - Swingin' Scotch
17. Johnny Hartman - In The Wee Small Hours Of The Morning
18. Ben Webster - That's All

Total time: 01:07:48

Exact Audio Copy V1.0 beta 3 from 29. August 2011

Отчёт EAC об извлечении, выполненном 5. июля 2013, 20:12

Various / Jazzclub Moods - Cocktail Jazz

Дисковод: ASUS DRW-22B2ST Adapter: 2 ID: 1

Режим чтения : Достоверность
Использование точного потока : Да
Отключение кэша аудио : Да
Использование указателей C2 : Нет

Коррекция смещения при чтении : 6
Способность читать области Lead-in и Lead-out : Нет
Заполнение пропущенных сэмплов тишиной : Да
Удаление блоков с тишиной в начале и конце : Нет
При вычислениях CRC использовались нулевые сэмплы : Да
Интерфейс : Установленный внешний ASPI-интерфейс

Выходной формат : Внутренние WAV-операции
Формат сэмплов : 44.100 Гц; 16 бит; стерео


TOC извлечённого CD

Трек | Старт | Длительность | Начальный сектор | Конечный сектор
––––––––––––––––––––––––––––––––––-
1 | 0:00.00 | 3:14.51 | 0 | 14600
2 | 3:14.51 | 4:19.02 | 14601 | 34027
3 | 7:33.53 | 3:13.18 | 34028 | 48520
4 | 10:46.71 | 3:10.58 | 48521 | 62828
5 | 13:57.54 | 4:13.67 | 62829 | 81870
6 | 18:11.46 | 3:23.05 | 81871 | 97100
7 | 21:34.51 | 2:20.48 | 97101 | 107648
8 | 23:55.24 | 2:30.06 | 107649 | 118904
9 | 26:25.30 | 5:30.33 | 118905 | 143687
10 | 31:55.63 | 4:17.05 | 143688 | 162967
11 | 36:12.68 | 3:22.71 | 162968 | 178188
12 | 39:35.64 | 2:51.51 | 178189 | 191064
13 | 42:27.40 | 6:33.73 | 191065 | 220612
14 | 49:01.38 | 4:21.39 | 220613 | 240226
15 | 53:23.02 | 2:13.25 | 240227 | 250226
16 | 55:36.27 | 5:33.06 | 250227 | 275207
17 | 61:09.33 | 2:47.30 | 275208 | 287762
18 | 63:56.63 | 3:50.71 | 287763 | 305083


Характеристики диапазона извлечения и сообщения об ошибках

Выбранный диапазон

Имя файла E:\MP3Files\МУЗ РАБОЧИЙ\EAC\WAV\Various - Jazzclub Moods - Cocktail Jazz.wav

Пиковый уровень 98.8 %
Скорость извлечения 3.5 X
Качество диапазона 100.0 %
CRC теста 5E3DE3A1
CRC копии 5E3DE3A1
Копирование… OK

Ошибок не произошло


AccurateRip: сводка

Трек 1 : извлечено точно (доверие 7) [41680D23] (AR v1)
Трек 2 : извлечено точно (доверие 2) [0FED4161] (AR v2)
Трек 3 : извлечено точно (доверие 2) [E79F6D15] (AR v2)
Трек 4 : извлечено точно (доверие 2) [63DB21D3] (AR v2)
Трек 5 : извлечено точно (доверие 2) [B3C33151] (AR v2)
Трек 6 : извлечено точно (доверие 2) [803D1546] (AR v2)
Трек 7 : извлечено точно (доверие 2) [531CFCCB] (AR v2)
Трек 8 : извлечено точно (доверие 2) [F9EA3214] (AR v2)
Трек 9 : извлечено точно (доверие 2) [6369B9B5] (AR v2)
Трек 10 : извлечено точно (доверие 2) [33651FF3] (AR v2)
Трек 11 : извлечено точно (доверие 2) [5A3A5507] (AR v2)
Трек 12 : извлечено точно (доверие 2) [9924301C] (AR v2)
Трек 13 : извлечено точно (доверие 2) [DC192DC3] (AR v2)
Трек 14 : извлечено точно (доверие 2) [364D7963] (AR v2)
Трек 15 : извлечено точно (доверие 2) [50075599] (AR v2)
Трек 16 : извлечено точно (доверие 2) [64D54ABE] (AR v2)
Трек 17 : извлечено точно (доверие 2) [D8293A49] (AR v2)
Трек 18 : извлечено точно (доверие 2) [DE473EF3] (AR v2)

Все треки извлечены точно

Конец отчёта

==== Контрольная сумма отчёта A247FFA05A7B8B2039AB49DA561E1C0D088AFD82784BD8373A5AA629DE22974B ====

[CUETools log; Date: 13.01.2020 0:31:22; Version: 2.1.4]
[CTDB TOCID: rhmqBk7w0aY_SVpue97F31QUnj0-] found.
Track | CTDB Status
1 | (46/47) Accurately ripped
2 | (47/47) Accurately ripped
3 | (46/47) Accurately ripped
4 | (47/47) Accurately ripped
5 | (46/47) Accurately ripped
6 | (46/47) Accurately ripped
7 | (46/47) Accurately ripped
8 | (47/47) Accurately ripped
9 | (47/47) Accurately ripped
10 | (46/47) Accurately ripped
11 | (47/47) Accurately ripped
12 | (47/47) Accurately ripped
13 | (47/47) Accurately ripped
14 | (46/47) Accurately ripped
15 | (46/47) Accurately ripped
16 | (46/47) Accurately ripped
17 | (46/47) Accurately ripped
18 | (45/47) Accurately ripped
[AccurateRip ID: 002b09b9-0242fa68-250fe312] found.
Track [ CRC | V2 ] Status
01 [41680d23|685f0b0c] (06+22/30) Accurately ripped
02 [350bb0ab|0fed4161] (06+23/31) Accurately ripped
03 [6a79807a|e79f6d15] (06+22/30) Accurately ripped
04 [a5d4b7d1|63db21d3] (06+23/31) Accurately ripped
05 [8f286be4|b3c33151] (07+23/32) Accurately ripped
06 [5e864fd2|803d1546] (06+23/31) Accurately ripped
07 [5af22ac2|531cfccb] (06+23/31) Accurately ripped
08 [2a0f5a56|f9ea3214] (06+23/31) Accurately ripped
09 [33d27fe7|6369b9b5] (06+23/31) Accurately ripped
10 [e00f4699|33651ff3] (06+23/31) Accurately ripped
11 [de558af7|5a3a5507] (06+23/31) Accurately ripped
12 [01d939c3|9924301c] (06+23/31) Accurately ripped
13 [0ea8e61a|dc192dc3] (06+22/30) Accurately ripped
14 [f4db7af0|364d7963] (06+22/30) Accurately ripped
15 [05c5fd98|50075599] (06+22/30) Accurately ripped
16 [42d33884|64d54abe] (06+23/31) Accurately ripped
17 [0b45c4f9|d8293a49] (06+23/31) Accurately ripped
18 [03d60aa7|de473ef3] (06+23/31) Accurately ripped
Offsetted by -12:
01 [b98f8aef] (00/30) No match (V2 was not tested)
02 [12dac4e7] (00/31) No match (V2 was not tested)
03 [6f2f91de] (00/30) No match (V2 was not tested)
04 [eee61dc9] (00/31) No match (V2 was not tested)
05 [ab022724] (00/32) No match (V2 was not tested)
06 [6abc0c2a] (00/31) No match (V2 was not tested)
07 [9c03640a] (00/31) No match (V2 was not tested)
08 [2c72feb2] (00/31) No match (V2 was not tested)
09 [62019f37] (00/31) No match (V2 was not tested)
10 [0a214371] (00/31) No match (V2 was not tested)
11 [7b400beb] (00/31) No match (V2 was not tested)
12 [6ef15d4f] (00/31) No match (V2 was not tested)
13 [f1e0ed22] (00/30) No match (V2 was not tested)
14 [51876790] (00/30) No match (V2 was not tested)
15 [3a8ff444] (00/30) No match (V2 was not tested)
16 [fd4b5380] (00/31) No match (V2 was not tested)
17 [f42c85c1] (00/31) No match (V2 was not tested)
18 [ece364cb] (00/31) No match (V2 was not tested)

Track Peak [ CRC32 ] [W/O NULL] [ LOG ]
– 98,8 [5E3DE3A1] [B9430E9F] CRC32
01 98,8 [A1730F13] [9DA8E079]
02 80,9 [AC1E8646] [1A4ABB5E]
03 98,8 [89E241DC] [F15AC0A6]
04 98,8 [3630FF8B] [329D2910]
05 86,6 [322A8D1E] [F7E34326]
06 98,8 [24C82BC7] [425B0366]
07 98,8 [70A91825] [5449E13D]
08 83,9 [5D1DE0A7] [0919441C]
09 98,8 [9439AD09] [73CCD9EF]
10 98,8 [12D217AD] [848265F1]
11 98,2 [B5AD8BFD] [9F5E7F7A]
12 94,6 [E8392AF5] [E3DCF71B]
13 98,8 [8D40D5D2] [84F9A696]
14 98,8 [74D9BBE1] [16C2C658]
15 98,8 [88A8A979] [10811EE2]
16 94,2 [4B2218E7] [B09F1BD9]
17 74,1 [50E725B7] [D6265763]
18 98,8 [8B5E973B] [22BEDFBB]

Thanks to the original releaser