Subcategories

Sammy Davis Jr., Nina Simone, Ella Fitzgerald & others - Jazz For Weddings [Recorded 1954-1995] (2007)

Posted By: gribovar
Sammy Davis Jr., Nina Simone, Ella Fitzgerald & others - Jazz For Weddings [Recorded 1954-1995] (2007)

Sammy Davis Jr., Nina Simone, Ella Fitzgerald & others - Jazz For Weddings [Recorded 1954-1995] (2007)
EAC Rip | FLAC (image+.cue+log) - 429 MB | MP3 CBR 320 kbps (LAME 3.93) - 168 MB | Covers (4 MB) included
Genre: Vocal Jazz | RAR 3% Rec. | Label: Universal Music (06024 9847102)

The Jazz Club series is an attractive addition to the Verve catalogue. With it's modern design and popular choice of repertoire, the Jazz Club is not only opened for Jazz fans, but for everyone that loves good music.
Tracklist:
01. Etta James - At Last
02. Willie Bobo - This Guy's In Love With You
03. Margaret Whiting - The Way You Look Tonight
04. Johnny Hartman - Unforgettable
05. Sarah Vaughan - Embraceable You
06. Paul Desmond - Someday My Prince Will Come
07. Joe Williams feat. Shirley Horn - To Good To Be True
08. Blossom Dearie - Someone To Watch Over Me
09. Ella Fitzgerald & Louis Armstrong - Love Is Here To Stay
10. Shirley Horn - Fever
11. Gary McFarland - I Want To Hold Your Hand
12. Sammy Davis Jr. & Carmen Mcrae - I Go For You
13. James Brown - It Had To Be You
14. Lorez Alexandria - Get Me To The Church On Time
15. Horst Jankowski - I've Got You Under My Skin
16. Nina Simone - Be My Husband
17. American Gypsy - Golden Ring
18. Ramsey Lewis Trio - And I Love Her

Total time: 01:09:41

Exact Audio Copy V1.0 beta 3 from 29. August 2011

Отчёт EAC об извлечении, выполненном 29. августа 2013, 21:56

Various / Jazzclub Moods - Jazz For Weddings

Дисковод: ASUS DRW-22B2ST Adapter: 2 ID: 1

Режим чтения : Достоверность
Использование точного потока : Да
Отключение кэша аудио : Да
Использование указателей C2 : Нет

Коррекция смещения при чтении : 6
Способность читать области Lead-in и Lead-out : Нет
Заполнение пропущенных сэмплов тишиной : Да
Удаление блоков с тишиной в начале и конце : Нет
При вычислениях CRC использовались нулевые сэмплы : Да
Интерфейс : Установленный внешний ASPI-интерфейс

Выходной формат : Внутренние WAV-операции
Формат сэмплов : 44.100 Гц; 16 бит; стерео


TOC извлечённого CD

Трек | Старт | Длительность | Начальный сектор | Конечный сектор
––––––––––––––––––––––––––––––––––-
1 | 0:00.00 | 3:00.60 | 0 | 13559
2 | 3:00.60 | 2:59.00 | 13560 | 26984
3 | 5:59.60 | 3:33.54 | 26985 | 43013
4 | 9:33.39 | 2:37.35 | 43014 | 54823
5 | 12:10.74 | 4:48.63 | 54824 | 76486
6 | 16:59.62 | 3:08.73 | 76487 | 90659
7 | 20:08.60 | 4:22.55 | 90660 | 110364
8 | 24:31.40 | 5:59.13 | 110365 | 137302
9 | 30:30.53 | 4:00.04 | 137303 | 155306
10 | 34:30.57 | 4:44.00 | 155307 | 176606
11 | 39:14.57 | 3:14.04 | 176607 | 191160
12 | 42:28.61 | 2:56.09 | 191161 | 204369
13 | 45:24.70 | 2:44.27 | 204370 | 216696
14 | 48:09.22 | 4:01.13 | 216697 | 234784
15 | 52:10.35 | 3:52.57 | 234785 | 252241
16 | 56:03.17 | 3:24.55 | 252242 | 267596
17 | 59:27.72 | 4:24.48 | 267597 | 287444
18 | 63:52.45 | 5:48.30 | 287445 | 313574


Характеристики диапазона извлечения и сообщения об ошибках

Выбранный диапазон

Имя файла E:\MP3Files\МУЗ РАБОЧИЙ\EAC\WAV\Various - Jazzclub Moods - Jazz For Weddings.wav

Пиковый уровень 99.7 %
Скорость извлечения 6.7 X
Качество диапазона 100.0 %
CRC теста EBE6F00D
CRC копии EBE6F00D
Копирование… OK

Ошибок не произошло


AccurateRip: сводка

Трек 1 отсутствует в базе данных
Трек 2 отсутствует в базе данных
Трек 3 отсутствует в базе данных
Трек 4 отсутствует в базе данных
Трек 5 отсутствует в базе данных
Трек 6 отсутствует в базе данных
Трек 7 отсутствует в базе данных
Трек 8 отсутствует в базе данных
Трек 9 отсутствует в базе данных
Трек 10 отсутствует в базе данных
Трек 11 отсутствует в базе данных
Трек 12 отсутствует в базе данных
Трек 13 отсутствует в базе данных
Трек 14 отсутствует в базе данных
Трек 15 отсутствует в базе данных
Трек 16 отсутствует в базе данных
Трек 17 отсутствует в базе данных
Трек 18 отсутствует в базе данных

Ни одного трека нет в базе AccurateRip

Конец отчёта

==== Контрольная сумма отчёта 40559F45C9278DFCACA7B301384B47AD59313BD0C5608F0C2484153132C76598 ====

[CUETools log; Date: 17.01.2020 17:48:19; Version: 2.1.4]
[CTDB TOCID: 0hUWIrUV4g1lbKTfnGC9n9a9uYs-] found.
Track | CTDB Status
1 | (19/20) Accurately ripped
2 | (20/20) Accurately ripped
3 | (20/20) Accurately ripped
4 | (20/20) Accurately ripped
5 | (20/20) Accurately ripped
6 | (20/20) Accurately ripped
7 | (20/20) Accurately ripped
8 | (20/20) Accurately ripped
9 | (20/20) Accurately ripped
10 | (20/20) Accurately ripped
11 | (20/20) Accurately ripped
12 | (20/20) Accurately ripped
13 | (20/20) Accurately ripped
14 | (20/20) Accurately ripped
15 | (20/20) Accurately ripped
16 | (20/20) Accurately ripped
17 | (20/20) Accurately ripped
18 | (20/20) Accurately ripped
[AccurateRip ID: 002b8878-024b3dab-e8105512] found.
Track [ CRC | V2 ] Status
01 [7a66009d|341a6b40] (07+04/11) Accurately ripped
02 [a07f3554|1bc43ba6] (07+04/11) Accurately ripped
03 [a0ae25db|19e824e1] (07+04/11) Accurately ripped
04 [f57b6bfd|6a03aab7] (07+04/11) Accurately ripped
05 [8fe3f861|e71376fe] (07+04/11) Accurately ripped
06 [f5446f3b|68834149] (07+04/11) Accurately ripped
07 [d7f13291|b0c3d51a] (07+04/11) Accurately ripped
08 [d9fe1c5b|ca9a8cfe] (07+04/11) Accurately ripped
09 [dd5b5bfc|675186ca] (07+04/11) Accurately ripped
10 [9f9d489e|ec915331] (07+04/11) Accurately ripped
11 [cad19ef2|be3bcc0d] (07+04/11) Accurately ripped
12 [27a89c83|32972a74] (07+04/11) Accurately ripped
13 [082d1958|685c7f76] (07+04/11) Accurately ripped
14 [3f7298b4|5dce4841] (07+04/11) Accurately ripped
15 [f4535820|38b946f4] (07+04/11) Accurately ripped
16 [5c8d882c|c7b5215e] (07+04/11) Accurately ripped
17 [fd0a4b01|c7290533] (07+04/11) Accurately ripped
18 [f15dd998|e4c79b8d] (07+04/11) Accurately ripped

Track Peak [ CRC32 ] [W/O NULL] [ LOG ]
– 99,7 [EBE6F00D] [3F3CF5D5] CRC32
01 90,9 [1F444268] [7BAF56CE]
02 99,7 [B249556A] [694699B5]
03 82,5 [586ABE06] [8FAB49ED]
04 99,7 [72569017] [D0E39653]
05 85,2 [FD520ABD] [807761A5]
06 99,7 [2939228E] [EF6B83F0]
07 99,7 [72D53E4A] [51524844]
08 99,7 [9406287E] [0CA4B510]
09 90,0 [530ADE63] [69BDBA5B]
10 99,7 [E320479C] [6957A7C1]
11 99,7 [75438342] [A9E2200B]
12 94,8 [C3DF5296] [1F5E581E]
13 99,7 [61DCB2F1] [EDAFA010]
14 99,7 [31AED8B3] [08B40112]
15 92,6 [325431DB] [FCB2C715]
16 99,7 [A2A86A9E] [9F131C1E]
17 99,7 [6D50373E] [6AB9A035]
18 80,0 [B659C72E] [BF8E0EB2]

Thanks to the original releaser