Subcategories

V.A. - Kuschelrock 18 (2004)

Posted By: gribovar
V.A. - Kuschelrock 18 (2004)

V.A. - Kuschelrock 18 (2004)
EAC Rip | FLAC (tracks+.cue+log) - 1,01 GB | Covers - 188 MB
Genre: Rok, Pop, Ballad | RAR 3% Rec. | Label: Sony Music Media (SMM 518018 2)

KuschelRock! A Name in which you must immediately think of pure romance. For more than 33 years, the most beautiful cuddly rock love songs have been cuddled over the borders of Europe.
Sting, Madonna, Coldplay, Oasis, Tanita Tikaram, Eros Ramazzotti, Bruce Springsteen, Alicia Keys, Leonard Cohen and many others.
CD 1 Tracklist:
01. Sting - Fields Of Gold
02. Madonna - Take A Bow
03. Evanescence - My Immortal
04. Prince - Purple Rain
05. Max - Can't Wait Until Tonight
06. Sade - No Ordinary Love
07. Randy Crawford - Almaz
08. Blue - Breathe Easy
09. Brandy - (Everything I Do) I Do It For You
10. Santana Feat. Everlast - Put Your Lights On
11. Coldplay - The Scientist
12. Oasis - Little By Little
13. Nelly Furtado - Try
14. Bonnie Bianco & Pierre Cosso - Stay
15. Black - Wonderful Life
16. Tanita Tikaram - Twist In My Sobriety
17. Eros Ramazzotti - Se Bastasse Una Canzone
18. Delta Goodrem - Born To Try

Total time: 01:16:35

CD 2 Tracklist:
01. Seal - Love's Divine
02. Dido - White Flag
03. 3 Doors Down - Here Without You
04. Reamonn - Star
05. Wet Wet Wet - Goodnight Girl
06. Simple Minds - Let There Be Love
07. Alannah Myles - Black Velvet
08. Dave Stewart Feat. Candy Dulfer - Lily Was Here
09. Bruce Springsteen - If I Should Fall Behind
10. George Michael - Kissing A Fool
11. Katie Melua - The Closest Thing To Crazy
12. Michael Andrews Feat. Gary Jules Mad World
13. Sam Brown - Stop
14. Alison Moyet - For You Only
15. Bryan Ferry - Slave To Love
16. Alicia Keys - You Don't Know My Name
17. Sarah Connor Feat. Natural - Just One Last Dance
18. Leonard Cohen - A Thousand Kisses Deep

Total time: 01:18:48

Exact Audio Copy V1.3 from 2. September 2016

EAC extraction logfile from 26. April 2020, 16:40

Various Artists / Kuschelrock 18 (CD1)

Used drive : PIONEER DVD-RW DVR-221L Adapter: 1 ID: 0

Read mode : Secure
Utilize accurate stream : Yes
Defeat audio cache : Yes
Make use of C2 pointers : No

Read offset correction : 6
Overread into Lead-In and Lead-Out : No
Fill up missing offset samples with silence : Yes
Delete leading and trailing silent blocks : No
Null samples used in CRC calculations : Yes
Used interface : Native Win32 interface for Win NT & 2000
Gap handling : Appended to previous track

Used output format : User Defined Encoder
Selected bitrate : 1024 kBit/s
Quality : High
Add ID3 tag : No
Command line compressor : C:\Program Files (x86)\Exact Audio Copy\FLAC\FLAC.EXE
Additional command line options : -6 -V -T "COMMENT=ripped by RRC for new-team org" -T "ARTIST=%artist%" -T "TITLE=%title%" -T "ALBUM=%albumtitle%" -T "DATE=%year%" -T "TRACKNUMBER=%tracknr%" -T "GENRE=%genre%" %source%


TOC of the extracted CD

Track | Start | Length | Start sector | End sector
––––––––––––––––––––––––––––-
1 | 0:00.00 | 3:38.05 | 0 | 16354
2 | 3:38.05 | 4:31.62 | 16355 | 36741
3 | 8:09.67 | 4:23.43 | 36742 | 56509
4 | 12:33.35 | 4:09.07 | 56510 | 75191
5 | 16:42.42 | 3:02.63 | 75192 | 88904
6 | 19:45.30 | 4:01.50 | 88905 | 107029
7 | 23:47.05 | 4:07.00 | 107030 | 125554
8 | 27:54.05 | 3:40.30 | 125555 | 142084
9 | 31:34.35 | 4:09.45 | 142085 | 160804
10 | 35:44.05 | 4:05.20 | 160805 | 179199
11 | 39:49.25 | 5:09.55 | 179200 | 202429
12 | 44:59.05 | 4:54.00 | 202430 | 224479
13 | 49:53.05 | 3:49.49 | 224480 | 241703
14 | 53:42.54 | 3:51.63 | 241704 | 259091
15 | 57:34.42 | 4:49.13 | 259092 | 280779
16 | 62:23.55 | 4:52.45 | 280780 | 302724
17 | 67:16.25 | 5:07.42 | 302725 | 325791
18 | 72:23.67 | 4:10.69 | 325792 | 344610


Track 1

Filename E:\RRCLtd Rip\01 - Sting - Fields Of Gold.wav

Pre-gap length 0:00:02.00

Peak level 98.5 %
Extraction speed 2.9 X
Track quality 100.0 %
Test CRC B650A274
Copy CRC B650A274
Accurately ripped (confidence 124) [D48B2B47] (AR v2)
Copy OK

Track 2

Filename E:\RRCLtd Rip\02 - Madonna - Take a Bow.wav

Pre-gap length 0:00:01.17

Peak level 98.4 %
Extraction speed 3.2 X
Track quality 100.0 %
Test CRC 19953DAA
Copy CRC 19953DAA
Accurately ripped (confidence 121) [507A6DF5] (AR v2)
Copy OK

Track 3

Filename E:\RRCLtd Rip\03 - Evanescence - My Immortal.wav

Pre-gap length 0:00:01.45

Peak level 98.0 %
Extraction speed 2.8 X
Track quality 99.9 %
Test CRC 94BA8DB9
Copy CRC 94BA8DB9
Accurately ripped (confidence 121) [C7493EFA] (AR v2)
Copy OK

Track 4

Filename E:\RRCLtd Rip\04 - Prince - Purple Rain.wav

Pre-gap length 0:00:01.41

Peak level 98.6 %
Extraction speed 3.6 X
Track quality 100.0 %
Test CRC 9C70F6DF
Copy CRC 9C70F6DF
Accurately ripped (confidence 122) [AC4C8D11] (AR v2)
Copy OK

Track 5

Filename E:\RRCLtd Rip\05 - Max Mutzke - Can't Wait Until Tonight.wav

Pre-gap length 0:00:01.59

Peak level 98.4 %
Extraction speed 3.8 X
Track quality 100.0 %
Test CRC E160C9CF
Copy CRC E160C9CF
Accurately ripped (confidence 121) [03902746] (AR v2)
Copy OK

Track 6

Filename E:\RRCLtd Rip\06 - Sade - No Ordinary Love.wav

Pre-gap length 0:00:01.60

Peak level 98.8 %
Extraction speed 3.3 X
Track quality 99.9 %
Test CRC 85EC4C03
Copy CRC 85EC4C03
Accurately ripped (confidence 122) [93FE6819] (AR v2)
Copy OK

Track 7

Filename E:\RRCLtd Rip\07 - Randy Crawford - Almaz.wav

Pre-gap length 0:00:01.35

Peak level 87.4 %
Extraction speed 3.4 X
Track quality 99.9 %
Test CRC CDEF3A80
Copy CRC CDEF3A80
Accurately ripped (confidence 121) [2B6CAD5C] (AR v2)
Copy OK

Track 8

Filename E:\RRCLtd Rip\08 - Blue - Breathe Easy.wav

Pre-gap length 0:00:01.68

Peak level 98.2 %
Extraction speed 3.5 X
Track quality 99.9 %
Test CRC 989D743B
Copy CRC 989D743B
Accurately ripped (confidence 120) [61FECD72] (AR v2)
Copy OK

Track 9

Filename E:\RRCLtd Rip\09 - Brandy - (Everything I Do) I Do It For You.wav

Pre-gap length 0:00:01.38

Peak level 73.9 %
Extraction speed 4.8 X
Track quality 100.0 %
Test CRC 98E1AFDB
Copy CRC 98E1AFDB
Accurately ripped (confidence 121) [88996922] (AR v2)
Copy OK

Track 10

Filename E:\RRCLtd Rip\10 - Santana feat. Everlast - Put Your Lights On.wav

Pre-gap length 0:00:01.33

Peak level 98.0 %
Extraction speed 5.0 X
Track quality 100.0 %
Test CRC 8F91E0A7
Copy CRC 8F91E0A7
Accurately ripped (confidence 122) [337EB5E8] (AR v2)
Copy OK

Track 11

Filename E:\RRCLtd Rip\11 - Coldplay - The Scientist.wav

Pre-gap length 0:00:01.06

Peak level 78.1 %
Extraction speed 4.3 X
Track quality 99.9 %
Test CRC 5D67D10F
Copy CRC 5D67D10F
Accurately ripped (confidence 120) [DA67E86E] (AR v2)
Copy OK

Track 12

Filename E:\RRCLtd Rip\12 - Oasis - Little by Little.wav

Pre-gap length 0:00:01.20

Peak level 78.0 %
Extraction speed 5.5 X
Track quality 100.0 %
Test CRC 775CC60A
Copy CRC 775CC60A
Accurately ripped (confidence 119) [6975EE42] (AR v2)
Copy OK

Track 13

Filename E:\RRCLtd Rip\13 - Nelly Furtado - Try.wav

Pre-gap length 0:00:00.65

Peak level 89.1 %
Extraction speed 5.4 X
Track quality 100.0 %
Test CRC 5AA61E0F
Copy CRC 5AA61E0F
Accurately ripped (confidence 120) [8C36C011] (AR v2)
Copy OK

Track 14

Filename E:\RRCLtd Rip\14 - Bonnie Bianco & Pierre Cosso - Stay.wav

Pre-gap length 0:00:01.29

Peak level 98.4 %
Extraction speed 5.8 X
Track quality 100.0 %
Test CRC 4F36CFDA
Copy CRC 4F36CFDA
Accurately ripped (confidence 118) [9CB5336A] (AR v2)
Copy OK

Track 15

Filename E:\RRCLtd Rip\15 - Black - Wonderful Life.wav

Pre-gap length 0:00:01.64

Peak level 91.6 %
Extraction speed 4.7 X
Track quality 99.9 %
Test CRC B5CACE20
Copy CRC B5CACE20
Accurately ripped (confidence 123) [33474702] (AR v2)
Copy OK

Track 16

Filename E:\RRCLtd Rip\16 - Tanita Tikaram - Twist In My Sobriety.wav

Pre-gap length 0:00:01.67

Peak level 81.8 %
Extraction speed 6.2 X
Track quality 100.0 %
Test CRC 33259A57
Copy CRC 33259A57
Accurately ripped (confidence 123) [35880904] (AR v2)
Copy OK

Track 17

Filename E:\RRCLtd Rip\17 - Eros Ramazzotti - Se Bastasse Una Canzone.wav

Pre-gap length 0:00:01.40

Peak level 98.2 %
Extraction speed 6.4 X
Track quality 100.0 %
Test CRC 8E32862F
Copy CRC 8E32862F
Accurately ripped (confidence 118) [A9864C3F] (AR v2)
Copy OK

Track 18

Filename E:\RRCLtd Rip\18 - Delta Goodrem - Born To Try.wav

Pre-gap length 0:00:01.36

Peak level 98.6 %
Extraction speed 6.4 X
Track quality 100.0 %
Test CRC 8BCA5484
Copy CRC 8BCA5484
Accurately ripped (confidence 116) [1D8199E4] (AR v2)
Copy OK


All tracks accurately ripped

No errors occurred

End of status report

–– CUETools DB Plugin V2.1.6

[CTDB TOCID: AdotR0SDkq2vN1pYw8Rrzgk9HjI-] found
Submit result: AdotR0SDkq2vN1pYw8Rrzgk9HjI- has been confirmed, AdotR0SDkq2vN1pYw8Rrzgk9HjI- has been confirmed
Track | CTDB Status
1 | (525/532) Accurately ripped
2 | (526/532) Accurately ripped
3 | (525/532) Accurately ripped
4 | (525/532) Accurately ripped
5 | (527/532) Accurately ripped
6 | (525/532) Accurately ripped
7 | (525/532) Accurately ripped
8 | (523/532) Accurately ripped
9 | (525/532) Accurately ripped
10 | (526/532) Accurately ripped
11 | (522/532) Accurately ripped
12 | (522/532) Accurately ripped
13 | (524/532) Accurately ripped
14 | (519/532) Accurately ripped
15 | (519/532) Accurately ripped
16 | (518/532) Accurately ripped
17 | (515/532) Accurately ripped
18 | (507/532) Accurately ripped, or (2/532) differs in 1 samples @04:10:57


==== Log checksum 5D0599C58E2E53C62D851055091D141894DBDE489AEFC4883E01A17D4C5E1D0D ====

[CUETools log; Date: 02.05.2020 11:41:58; Version: 2.1.4]
[CTDB TOCID: AdotR0SDkq2vN1pYw8Rrzgk9HjI-] found.
Track | CTDB Status
1 | (527/534) Accurately ripped
2 | (528/534) Accurately ripped
3 | (527/534) Accurately ripped
4 | (527/534) Accurately ripped
5 | (529/534) Accurately ripped
6 | (527/534) Accurately ripped
7 | (527/534) Accurately ripped
8 | (525/534) Accurately ripped
9 | (527/534) Accurately ripped
10 | (528/534) Accurately ripped
11 | (524/534) Accurately ripped
12 | (524/534) Accurately ripped
13 | (526/534) Accurately ripped
14 | (521/534) Accurately ripped
15 | (521/534) Accurately ripped
16 | (520/534) Accurately ripped
17 | (517/534) Accurately ripped
18 | (509/534) Accurately ripped, or (2/534) differs in 1 samples @04:10:57
[AccurateRip ID: 00305ec9-02896382-0611f212] found.
Track [ CRC | V2 ] Status
01 [72f27cfa|d48b2b47] (090+124/241) Accurately ripped
02 [f82c8d6c|507a6df5] (091+121/240) Accurately ripped
03 [7c66b166|c7493efa] (090+121/238) Accurately ripped
04 [3a14932b|ac4c8d11] (091+122/241) Accurately ripped
05 [9747f1dc|03902746] (090+121/239) Accurately ripped
06 [07ef4656|93fe6819] (092+122/243) Accurately ripped
07 [1c6bcca5|2b6cad5c] (088+121/237) Accurately ripped
08 [a6ea5b3a|61fecd72] (092+120/240) Accurately ripped
09 [deff648f|88996922] (090+121/239) Accurately ripped
10 [f3f77a00|337eb5e8] (090+122/239) Accurately ripped
11 [b98432d9|da67e86e] (088+120/235) Accurately ripped
12 [5c7fdf9a|6975ee42] (091+119/237) Accurately ripped
13 [714567ed|8c36c011] (091+120/238) Accurately ripped
14 [a69a6b0e|9cb5336a] (089+118/234) Accurately ripped
15 [9fa5b920|33474702] (091+123/242) Accurately ripped
16 [1a7e5328|35880904] (090+123/241) Accurately ripped
17 [af52e6b8|a9864c3f] (088+118/233) Accurately ripped
18 [35983e01|1d8199e4] (087+116/230) Accurately ripped
Offsetted by -599:
01 [375bf786] (008/241) Accurately ripped
02 [fcca3e73] (008/240) Accurately ripped
03 [fc8714e2] (008/238) Accurately ripped
04 [9c54e6e7] (008/241) Accurately ripped
05 [2affdfab] (008/239) Accurately ripped
06 [13a8c721] (008/243) Accurately ripped
07 [cefdadfe] (008/237) Accurately ripped
08 [4ee2f002] (008/240) Accurately ripped
09 [d3128d86] (008/239) Accurately ripped
10 [1a5d41a8] (008/239) Accurately ripped
11 [0d3c02ed] (008/235) Accurately ripped
12 [81c4f2f6] (008/237) Accurately ripped
13 [df5d37f9] (008/238) Accurately ripped
14 [54de8571] (008/234) Accurately ripped
15 [d3ec5c6c] (008/242) Accurately ripped
16 [398f5266] (008/241) Accurately ripped
17 [20fcaea1] (008/233) Accurately ripped
18 [9f400bde] (008/230) Accurately ripped
Offsetted by -635:
01 [2a602b56] (000/241) No match (V2 was not tested)
02 [a64f3bd7] (000/240) No match (V2 was not tested)
03 [de30fcf2] (000/238) No match (V2 was not tested)
04 [06abadf7] (000/241) No match (V2 was not tested)
05 [b63a5def] (000/239) No match (V2 was not tested)
06 [b6572f75] (000/243) No match (V2 was not tested)
07 [60c6571a] (000/237) No match (V2 was not tested)
08 [0c7b10e2] (000/240) No match (V2 was not tested)
09 [3c58832a] (000/239) No match (V2 was not tested)
10 [9f05c708] (000/239) No match (V2 was not tested)
11 [05df349d] (000/235) No match (V2 was not tested)
12 [2669cb86] (000/237) No match (V2 was not tested)
13 [13b5d5c9] (000/238) No match (V2 was not tested)
14 [d5ba0365] (000/234) No match (V2 was not tested)
15 [b7ddcd3c] (000/242) No match (V2 was not tested)
16 [e21ad06e] (000/241) No match (V2 was not tested)
17 [2243257d] (000/233) No match (V2 was not tested)
18 [434d8cea] (000/230) No match (V2 was not tested)
Offsetted by -605:
01 [8a87557e] (000/241) No match (V2 was not tested)
02 [190b1359] (000/240) No match (V2 was not tested)
03 [2223663a] (000/238) No match (V2 was not tested)
04 [d8b8b2bf] (000/241) No match (V2 was not tested)
05 [17899f61] (000/239) No match (V2 was not tested)
06 [5970832f] (000/243) No match (V2 was not tested)
07 [91f474d8] (000/237) No match (V2 was not tested)
08 [6e7c4ad2] (000/240) No match (V2 was not tested)
09 [39f38bcc] (000/239) No match (V2 was not tested)
10 [05cead38] (000/239) No match (V2 was not tested)
11 [36ac8b35] (000/235) No match (V2 was not tested)
12 [f28b170e] (000/237) No match (V2 was not tested)
13 [bd6bfcf1] (000/238) No match (V2 was not tested)
14 [95031a6f] (000/234) No match (V2 was not tested)
15 [a49499e4] (000/242) No match (V2 was not tested)
16 [55a69212] (000/241) No match (V2 was not tested)
17 [f6886d1b] (000/233) No match (V2 was not tested)
18 [3a97a160] (000/230) No match (V2 was not tested)
Offsetted by -86:
01 [70601532] (000/241) No match (V2 was not tested)
02 [8d2323a2] (000/240) No match (V2 was not tested)
03 [ecd1e9fe] (000/238) No match (V2 was not tested)
04 [f1005243] (000/241) No match (V2 was not tested)
05 [2afe5862] (000/239) No match (V2 was not tested)
06 [45737874] (000/243) No match (V2 was not tested)
07 [b192442f] (000/237) No match (V2 was not tested)
08 [c12b1b8a] (000/240) No match (V2 was not tested)
09 [f6eda125] (000/239) No match (V2 was not tested)
10 [77fbd510] (000/239) No match (V2 was not tested)
11 [b6267ee1] (000/235) No match (V2 was not tested)
12 [5797e4f2] (000/237) No match (V2 was not tested)
13 [356e6f25] (000/238) No match (V2 was not tested)
14 [e8a6c29c] (000/234) No match (V2 was not tested)
15 [a3bbd4d8] (000/242) No match (V2 was not tested)
16 [57cb8e74] (000/241) No match (V2 was not tested)
17 [4ed090e2] (000/233) No match (V2 was not tested)
18 [3d7f9cf3] (000/230) No match (V2 was not tested)

Track Peak [ CRC32 ] [W/O NULL] [ LOG ]
– 98,8 [A77CAAC4] [229DCFC2]
01 98,5 [B650A274] [C6839A4F] CRC32
02 98,4 [19953DAA] [054B318D] CRC32
03 98,0 [94BA8DB9] [B7BF3BEB] CRC32
04 98,6 [9C70F6DF] [A0C92E77] CRC32
05 98,4 [E160C9CF] [FDF4187E] CRC32
06 98,8 [85EC4C03] [0D59723C] CRC32
07 87,4 [CDEF3A80] [B576ABFB] CRC32
08 98,2 [989D743B] [F99D3B4F] CRC32
09 73,9 [98E1AFDB] [20FF6721] CRC32
10 98,0 [8F91E0A7] [A02D46AD] CRC32
11 78,1 [5D67D10F] [B206597C] CRC32
12 78,0 [775CC60A] [3BFBF6A6] CRC32
13 89,1 [5AA61E0F] [046F4A18] CRC32
14 98,4 [4F36CFDA] [8B88ED08] CRC32
15 91,6 [B5CACE20] [A47000D1] CRC32
16 81,8 [33259A57] [A272C756] CRC32
17 98,2 [8E32862F] [A7F8B38A] CRC32
18 98,6 [8BCA5484] [9FBF95D5] CRC32

Exact Audio Copy V1.3 from 2. September 2016

EAC extraction logfile from 26. April 2020, 17:12

Various Artists / Kuschelrock 18 (CD2)

Used drive : PIONEER DVD-RW DVR-215 Adapter: 1 ID: 2

Read mode : Secure
Utilize accurate stream : Yes
Defeat audio cache : Yes
Make use of C2 pointers : No

Read offset correction : 48
Overread into Lead-In and Lead-Out : No
Fill up missing offset samples with silence : Yes
Delete leading and trailing silent blocks : No
Null samples used in CRC calculations : Yes
Used interface : Native Win32 interface for Win NT & 2000
Gap handling : Appended to previous track

Used output format : User Defined Encoder
Selected bitrate : 1024 kBit/s
Quality : High
Add ID3 tag : No
Command line compressor : C:\Program Files (x86)\Exact Audio Copy\FLAC\FLAC.EXE
Additional command line options : -6 -V -T "COMMENT=ripped by RRC for new-team org" -T "ARTIST=%artist%" -T "TITLE=%title%" -T "ALBUM=%albumtitle%" -T "DATE=%year%" -T "TRACKNUMBER=%tracknr%" -T "GENRE=%genre%" %source%


TOC of the extracted CD

Track | Start | Length | Start sector | End sector
––––––––––––––––––––––––––––-
1 | 0:00.00 | 4:36.54 | 0 | 20753
2 | 4:36.54 | 4:00.00 | 20754 | 38753
3 | 8:36.54 | 3:57.25 | 38754 | 56553
4 | 12:34.04 | 3:54.45 | 56554 | 74148
5 | 16:28.49 | 3:39.60 | 74149 | 90633
6 | 20:08.34 | 5:11.55 | 90634 | 114013
7 | 25:20.14 | 4:46.60 | 114014 | 135523
8 | 30:06.74 | 4:19.65 | 135524 | 155013
9 | 34:26.64 | 2:56.15 | 155014 | 168228
10 | 37:23.04 | 4:35.45 | 168229 | 188898
11 | 41:58.49 | 4:12.40 | 188899 | 207838
12 | 46:11.14 | 3:04.55 | 207839 | 221693
13 | 49:15.69 | 4:55.35 | 221694 | 243853
14 | 54:11.29 | 4:01.00 | 243854 | 261928
15 | 58:12.29 | 4:22.45 | 261929 | 281623
16 | 62:34.74 | 5:35.60 | 281624 | 306808
17 | 68:10.59 | 4:11.70 | 306809 | 325703
18 | 72:22.54 | 6:25.15 | 325704 | 354593


Track 1

Filename E:\RRCLtd Rip\01 - Seal - Love's Divine.wav

Pre-gap length 0:00:02.00

Peak level 98.4 %
Extraction speed 4.8 X
Track quality 100.0 %
Test CRC 96166836
Copy CRC 96166836
Accurately ripped (confidence 124) [D28AF5A2] (AR v2)
Copy OK

Track 2

Filename E:\RRCLtd Rip\02 - Dido - White Flag.wav

Pre-gap length 0:00:01.36

Peak level 87.5 %
Extraction speed 4.5 X
Track quality 99.9 %
Test CRC 5E69868A
Copy CRC 5E69868A
Accurately ripped (confidence 128) [0CC4F2B4] (AR v2)
Copy OK

Track 3

Filename E:\RRCLtd Rip\03 - 3 Doors Down - Here Without You.wav

Pre-gap length 0:00:01.39

Peak level 98.3 %
Extraction speed 5.5 X
Track quality 100.0 %
Test CRC 50E6B010
Copy CRC 50E6B010
Accurately ripped (confidence 124) [BC9A38FB] (AR v2)
Copy OK

Track 4

Filename E:\RRCLtd Rip\04 - Reamonn - Star.wav

Pre-gap length 0:00:01.31

Peak level 73.7 %
Extraction speed 5.8 X
Track quality 100.0 %
Test CRC A659C94E
Copy CRC A659C94E
Accurately ripped (confidence 125) [99C7DD0D] (AR v2)
Copy OK

Track 5

Filename E:\RRCLtd Rip\05 - Wet Wet Wet - Goodnight Girl.wav

Pre-gap length 0:00:01.41

Peak level 98.0 %
Extraction speed 6.0 X
Track quality 100.0 %
Test CRC CA86F8A9
Copy CRC CA86F8A9
Accurately ripped (confidence 125) [8F452048] (AR v2)
Copy OK

Track 6

Filename E:\RRCLtd Rip\06 - Simple Minds - Let There Be Love.wav

Pre-gap length 0:00:01.05

Peak level 98.0 %
Extraction speed 6.1 X
Track quality 99.9 %
Test CRC 78AC7ECD
Copy CRC 78AC7ECD
Accurately ripped (confidence 123) [9182E61B] (AR v2)
Copy OK

Track 7

Filename E:\RRCLtd Rip\07 - Alannah Myles - Black Velvet.wav

Pre-gap length 0:00:01.35

Peak level 98.8 %
Extraction speed 6.2 X
Track quality 99.9 %
Test CRC 508F6B7F
Copy CRC 508F6B7F
Accurately ripped (confidence 128) [B0D897C7] (AR v2)
Copy OK

Track 8

Filename E:\RRCLtd Rip\08 - Dave Stewart feat. Candy Dulfer - Lily Was Here.wav

Pre-gap length 0:00:01.35

Peak level 96.5 %
Extraction speed 7.1 X
Track quality 100.0 %
Test CRC 371EBB5A
Copy CRC 371EBB5A
Accurately ripped (confidence 127) [2B1DCBF3] (AR v2)
Copy OK

Track 9

Filename E:\RRCLtd Rip\09 - Bruce Springsteen - If I Should Fall Behind.wav

Pre-gap length 0:00:01.34

Peak level 98.0 %
Extraction speed 6.8 X
Track quality 100.0 %
Test CRC DB3D7673
Copy CRC DB3D7673
Accurately ripped (confidence 127) [880DFA81] (AR v2)
Copy OK

Track 10

Filename E:\RRCLtd Rip\10 - George Michael - Kissing a Fool.wav

Pre-gap length 0:00:01.34

Peak level 98.0 %
Extraction speed 7.5 X
Track quality 100.0 %
Test CRC 8E9EEFFA
Copy CRC 8E9EEFFA
Accurately ripped (confidence 123) [638030FA] (AR v2)
Copy OK

Track 11

Filename E:\RRCLtd Rip\11 - Katie Melua - The Closest Thing to Crazy.wav

Pre-gap length 0:00:01.36

Peak level 98.1 %
Extraction speed 7.7 X
Track quality 100.0 %
Test CRC EE080BB7
Copy CRC EE080BB7
Accurately ripped (confidence 126) [48440466] (AR v2)
Copy OK

Track 12

Filename E:\RRCLtd Rip\12 - Michael Andrews feat. Gary Jules - Mad World.wav

Pre-gap length 0:00:01.36

Peak level 94.2 %
Extraction speed 7.6 X
Track quality 100.0 %
Test CRC 92228458
Copy CRC 92228458
Accurately ripped (confidence 125) [8A6B77E8] (AR v2)
Copy OK

Track 13

Filename E:\RRCLtd Rip\13 - Sam Brown - Stop.wav

Pre-gap length 0:00:01.37

Peak level 87.5 %
Extraction speed 7.4 X
Track quality 99.9 %
Test CRC 7A1E8EA4
Copy CRC 7A1E8EA4
Accurately ripped (confidence 128) [59B4D0FF] (AR v2)
Copy OK

Track 14

Filename E:\RRCLtd Rip\14 - Alison Moyet - For You Only.wav

Pre-gap length 0:00:01.51

Peak level 98.4 %
Extraction speed 7.4 X
Track quality 99.9 %
Test CRC 4D26BE4F
Copy CRC 4D26BE4F
Accurately ripped (confidence 128) [F96A2C6C] (AR v2)
Copy OK

Track 15

Filename E:\RRCLtd Rip\15 - Bryan Ferry - Slave to Love.wav

Pre-gap length 0:00:01.34

Peak level 87.5 %
Extraction speed 7.4 X
Track quality 99.9 %
Test CRC C6109590
Copy CRC C6109590
Accurately ripped (confidence 127) [289478D2] (AR v2)
Copy OK

Track 16

Filename E:\RRCLtd Rip\16 - Alicia Keys - You Don't Know My Name.wav

Pre-gap length 0:00:01.36

Peak level 98.6 %
Extraction speed 9.1 X
Track quality 100.0 %
Test CRC F6A59737
Copy CRC F6A59737
Accurately ripped (confidence 123) [6C5AAE0D] (AR v2)
Copy OK

Track 17

Filename E:\RRCLtd Rip\17 - Sarah Connor feat. Natural - Just One Last Dance.wav

Pre-gap length 0:00:01.34

Peak level 77.9 %
Extraction speed 9.2 X
Track quality 100.0 %
Test CRC 44DA7132
Copy CRC 44DA7132
Accurately ripped (confidence 123) [B1EDD3C2] (AR v2)
Copy OK

Track 18

Filename E:\RRCLtd Rip\18 - Leonard Cohen - A Thousand Kisses Deep.wav

Pre-gap length 0:00:01.37

Peak level 87.6 %
Extraction speed 9.6 X
Track quality 100.0 %
Test CRC C02F506A
Copy CRC C02F506A
Accurately ripped (confidence 120) [78A954A4] (AR v2)
Copy OK


All tracks accurately ripped

No errors occurred

End of status report

–– CUETools DB Plugin V2.1.6

[CTDB TOCID: mhw_G6px0JvsIcU8rQiro4jXPOw-] found
Submit result: mhw_G6px0JvsIcU8rQiro4jXPOw- has been confirmed
Track | CTDB Status
1 | (504/512) Accurately ripped
2 | (505/512) Accurately ripped
3 | (507/512) Accurately ripped
4 | (507/512) Accurately ripped
5 | (508/512) Accurately ripped
6 | (504/512) Accurately ripped
7 | (507/512) Accurately ripped
8 | (506/512) Accurately ripped
9 | (507/512) Accurately ripped
10 | (503/512) Accurately ripped
11 | (502/512) Accurately ripped
12 | (504/512) Accurately ripped
13 | (505/512) Accurately ripped
14 | (504/512) Accurately ripped
15 | (507/512) Accurately ripped
16 | (505/512) Accurately ripped
17 | (505/512) Accurately ripped
18 | (501/512) Accurately ripped


==== Log checksum 9658CF541634AA936D9935A46BF0883DF6ECFBAE2A774AE07C68171D516B06CA ====

[CUETools log; Date: 02.05.2020 11:42:37; Version: 2.1.4]
[CTDB TOCID: mhw_G6px0JvsIcU8rQiro4jXPOw-] found.
Track | CTDB Status
1 | (505/513) Accurately ripped
2 | (506/513) Accurately ripped
3 | (508/513) Accurately ripped
4 | (508/513) Accurately ripped
5 | (509/513) Accurately ripped
6 | (505/513) Accurately ripped
7 | (508/513) Accurately ripped
8 | (507/513) Accurately ripped
9 | (508/513) Accurately ripped
10 | (504/513) Accurately ripped
11 | (503/513) Accurately ripped
12 | (505/513) Accurately ripped
13 | (506/513) Accurately ripped
14 | (505/513) Accurately ripped
15 | (508/513) Accurately ripped
16 | (506/513) Accurately ripped
17 | (506/513) Accurately ripped
18 | (502/513) Accurately ripped
[AccurateRip ID: 003189ec-0295e0a7-09127712] found.
Track [ CRC | V2 ] Status
01 [63d01259|d28af5a2] (087+124/217) Accurately ripped
02 [0124f558|0cc4f2b4] (091+128/225) Accurately ripped
03 [f8b3a91b|bc9a38fb] (088+124/218) Accurately ripped
04 [2759f2bf|99c7dd0d] (089+125/222) Accurately ripped
05 [af450902|8f452048] (089+125/222) Accurately ripped
06 [408d3d1b|9182e61b] (088+123/219) Accurately ripped
07 [288f3ae1|b0d897c7] (090+128/226) Accurately ripped
08 [f387a8a0|2b1dcbf3] (092+127/225) Accurately ripped
09 [eaa861c6|880dfa81] (089+127/222) Accurately ripped
10 [580bfdb2|638030fa] (087+123/216) Accurately ripped
11 [d83457d1|48440466] (089+126/222) Accurately ripped
12 [2281c745|8a6b77e8] (091+125/225) Accurately ripped
13 [bad08a78|59b4d0ff] (090+128/227) Accurately ripped
14 [79b7815c|f96a2c6c] (090+128/227) Accurately ripped
15 [b157bce2|289478d2] (089+127/225) Accurately ripped
16 [2005ac5a|6c5aae0d] (090+123/222) Accurately ripped
17 [b4551fdd|b1edd3c2] (090+123/222) Accurately ripped
18 [1b4a8e53|78a954a4] (087+120/214) Accurately ripped
Offsetted by -103:
01 [21106958] (000/217) No match (V2 was not tested)
02 [5420b1a2] (000/225) No match
03 [fd4a6f20] (000/218) No match (V2 was not tested)
04 [c5c11949] (000/222) No match (V2 was not tested)
05 [c27dea7b] (000/222) No match (V2 was not tested)
06 [47873b70] (000/219) No match (V2 was not tested)
07 [09d0461c] (000/226) No match (V2 was not tested)
08 [577eba16] (000/225) No match (V2 was not tested)
09 [4e42a35b] (000/222) No match
10 [271adeeb] (000/216) No match
11 [2cf6a16c] (000/222) No match (V2 was not tested)
12 [3b2e7962] (000/225) No match (V2 was not tested)
13 [f00268b9] (000/227) No match (V2 was not tested)
14 [3f98b05b] (000/227) No match (V2 was not tested)
15 [2173d96a] (000/225) No match (V2 was not tested)
16 [f4a15672] (000/222) No match (V2 was not tested)
17 [ba8d6cbe] (000/222) No match (V2 was not tested)
18 [a301a799] (000/214) No match
Offsetted by -86:
01 [58d1991f] (000/217) No match (V2 was not tested)
02 [f1ed341c] (000/225) No match (V2 was not tested)
03 [0dee713d] (000/218) No match (V2 was not tested)
04 [97ba0403] (000/222) No match (V2 was not tested)
05 [2040556c] (000/222) No match (V2 was not tested)
06 [2b09775d] (000/219) No match (V2 was not tested)
07 [63649b3f] (000/226) No match (V2 was not tested)
08 [c0c8475c] (000/225) No match (V2 was not tested)
09 [c18c9888] (000/222) No match (V2 was not tested)
10 [7eb77b9c] (000/216) No match (V2 was not tested)
11 [d6e579ef] (000/222) No match (V2 was not tested)
12 [3c1474d7] (000/225) No match (V2 was not tested)
13 [9535d432] (000/227) No match (V2 was not tested)
14 [32d1f822] (000/227) No match (V2 was not tested)
15 [7ecb2bb2] (000/225) No match (V2 was not tested)
16 [7a8c9dca] (000/222) No match (V2 was not tested)
17 [295ed9d7] (000/222) No match (V2 was not tested)
18 [016c222f] (000/214) No match (V2 was not tested)
Offsetted by -36:
01 [0bdc9e1d] (000/217) No match (V2 was not tested)
02 [d11986b0] (000/225) No match (V2 was not tested)
03 [a8494a47] (000/218) No match (V2 was not tested)
04 [97e16b17] (000/222) No match (V2 was not tested)
05 [7f4ef95e] (000/222) No match (V2 was not tested)
06 [31979107] (000/219) No match (V2 was not tested)
07 [6adca4b5] (000/226) No match (V2 was not tested)
08 [d8555048] (000/225) No match (V2 was not tested)
09 [32c078b2] (000/222) No match (V2 was not tested)
10 [6247df0e] (000/216) No match (V2 was not tested)
11 [250d6025] (000/222) No match (V2 was not tested)
12 [5cd6fe11] (000/225) No match (V2 was not tested)
13 [993679b4] (000/227) No match (V2 was not tested)
14 [85b6ad20] (000/227) No match (V2 was not tested)
15 [36f92cc2] (000/225) No match (V2 was not tested)
16 [046dc9fa] (000/222) No match (V2 was not tested)
17 [14f3fc99] (000/222) No match (V2 was not tested)
18 [dae18abb] (000/214) No match (V2 was not tested)
Offsetted by -6:
01 [aa7cd44f] (000/217) No match (V2 was not tested)
02 [23cdb83c] (000/225) No match (V2 was not tested)
03 [6b4c994d] (000/218) No match (V2 was not tested)
04 [64c5dc23] (000/222) No match (V2 was not tested)
05 [51f15bbc] (000/222) No match (V2 was not tested)
06 [68b9a06d] (000/219) No match (V2 was not tested)
07 [08f1772f] (000/226) No match (V2 was not tested)
08 [19a9ef3c] (000/225) No match (V2 was not tested)
09 [76ac6598] (000/222) No match (V2 was not tested)
10 [846b4dec] (000/216) No match (V2 was not tested)
11 [ba5883df] (000/222) No match (V2 was not tested)
12 [d6e55067] (000/225) No match (V2 was not tested)
13 [3536dd02] (000/227) No match (V2 was not tested)
14 [510cb352] (000/227) No match (V2 was not tested)
15 [7247fa32] (000/225) No match (V2 was not tested)
16 [f0c1b14a] (000/222) No match (V2 was not tested)
17 [6f1a44a7] (000/222) No match (V2 was not tested)
18 [908e630f] (000/214) No match (V2 was not tested)

Track Peak [ CRC32 ] [W/O NULL] [ LOG ]
– 98,8 [38641DC5] [07649F3A]
01 98,4 [96166836] [5AC660A5] CRC32
02 87,5 [5E69868A] [80A1A1DE] CRC32
03 98,3 [50E6B010] [6362CA8D] CRC32
04 73,7 [A659C94E] [870993D1] CRC32
05 98,0 [CA86F8A9] [4F557708] CRC32
06 98,0 [78AC7ECD] [412A9E11] CRC32
07 98,8 [508F6B7F] [64D064BE] CRC32
08 96,5 [371EBB5A] [02D34F25] CRC32
09 98,0 [DB3D7673] [7819A774] CRC32
10 98,0 [8E9EEFFA] [66611945] CRC32
11 98,1 [EE080BB7] [1A78D1BD] CRC32
12 94,2 [92228458] [B5B5B2DC] CRC32
13 87,5 [7A1E8EA4] [D9C1380B] CRC32
14 98,4 [4D26BE4F] [F83EAFC5] CRC32
15 87,5 [C6109590] [80A6C6C5] CRC32
16 98,6 [F6A59737] [75CAD7CD] CRC32
17 77,9 [44DA7132] [9D3D2351] CRC32
18 87,6 [C02F506A] [F0789284] CRC32

Thanks to RRC