Subcategories

Anita O'Day, Willie Bobo, Xavier Cugat & others - Latin Jazz [Recorded 1958-1968] (2008)

Posted By: gribovar
Anita O'Day, Willie Bobo, Xavier Cugat & others - Latin Jazz [Recorded 1958-1968] (2008)

Anita O'Day, Willie Bobo, Xavier Cugat & others - Latin Jazz [Recorded 1958-1968] (2008)
EAC Rip | FLAC (image+.cue+log) - 304 MB | MP3 CBR 320 kbps (LAME 3.93) - 117 MB | Covers (3 MB) included
Genre: Latin Jazz | RAR 3% Rec. | Label: Universal Music (4605026710917)

The Jazz Club series is an attractive addition to the Verve catalogue. With it's modern design and popular choice of repertoire, the Jazz Club is not only opened for Jazz fans, but for everyone that loves good music.
Tracklist:
01. Sarah Vaughan - Slow Hot Wind
02. Oscar Peterson - Mas Que Nada
03. Clark Terry & Chico O'Farrill - Spanish Rice
04. Louie Ramirez - Lucy's Spanish Harlem
05. Bill McElhiney & His Orchestra - Tequila
06. Quincy Jones - Rico Vacilon
07. Machito & His Afro-Cuban Orchestra - El Aji Caribe
08. Miguelito Valdes - No, Negrita, No
09. Cal Tjader - Cuchy Frito Man
10. Les McCann - Boo-Go-Loo
11. Ramsey Lewis - One, Two, Three
12. Willie Bobo - It's Not Unusual
13. Xavier Cugat & His Orchestra - Cugi's Cocktail
14. Lee Evans - Cinnamon & Clove
15. Marcos Valle - Pepino Beach
16. Anita O'Day - Peanut Vendor
17. Dizzy Gillespie - Summer Samba
18. Dave Pike & His Orchestra - South Seas

Total time: 48:14

Exact Audio Copy V0.99 prebeta 5 from 4. May 2009

Отчёт EAC об извлечении, выполненном 4. декабря 2012, 13:38

Various / Jazzclub World - Latin Jazz

Дисковод: _NEC DVD_RW ND-4571A Adapter: 0 ID: 0

Режим чтения : Достоверность
Использование точного потока : Да
Отключение кэша аудио : Да
Использование указателей C2 : Нет

Коррекция смещения при чтении : 48
Способность читать области Lead-in и Lead-out : Нет
Заполнение пропущенных сэмплов тишиной : Да
Удаление блоков с тишиной в начале и конце : Нет
При вычислениях CRC использовались нулевые сэмплы : Да
Интерфейс : Встроенный Win32-интерфейс для Win NT/2000

Выходной формат : Пользовательский кодировщик
Выбранный битрейт : 768 kBit/s
Качество : Высокий
Добавление ID3-тэга : Нет
Утилита сжатия : C:\Program Files\Exact Audio Copy\Flac\flac.exe
Дополнительные параметры : -6 -V -T "ARTIST=%a" -T "TITLE=%t" -T "ALBUM=%g" -T "DATE=%y" -T "TRACKNUMBER=%n" -T "GENRE=%m" -T "COMMENT=%e" %s -o %d


TOC извлечённого CD

Трек | Старт | Длительность | Начальный сектор | Конечный сектор
––––––––––––––––––––––––––––––––––-
1 | 0:00.00 | 3:37.44 | 0 | 16318
2 | 3:37.44 | 2:25.68 | 16319 | 27261
3 | 6:03.37 | 2:45.49 | 27262 | 39685
4 | 8:49.11 | 3:06.29 | 39686 | 53664
5 | 11:55.40 | 2:12.51 | 53665 | 63615
6 | 14:08.16 | 2:15.12 | 63616 | 73752
7 | 16:23.28 | 2:01.23 | 73753 | 82850
8 | 18:24.51 | 2:45.07 | 82851 | 95232
9 | 21:09.58 | 2:21.56 | 95233 | 105863
10 | 23:31.39 | 2:48.71 | 105864 | 118534
11 | 26:20.35 | 3:26.01 | 118535 | 133985
12 | 29:46.36 | 2:20.32 | 133986 | 144517
13 | 32:06.68 | 2:30.30 | 144518 | 155797
14 | 34:37.23 | 3:02.20 | 155798 | 169467
15 | 37:39.43 | 1:53.18 | 169468 | 177960
16 | 39:32.61 | 2:40.72 | 177961 | 190032
17 | 42:13.58 | 3:22.40 | 190033 | 205222
18 | 45:36.23 | 2:37.25 | 205223 | 217022


Характеристики диапазона извлечения и сообщения об ошибках

Выбранный диапазон

Имя файла F:\EAC\JazzClub World - Latin Jazz\JazzClub World - Latin Jazz.wav

Пиковый уровень 99.9 %
Качество диапазона 99.9 %
CRC копии E9027882
Копирование… OK

Ошибок не произошло


AccurateRip: сводка

Трек 1 точность не определена (достоверность 7) [8777D80C], AccurateRip вернул [8552D14C]
Трек 2 точность не определена (достоверность 7) [1025A52D], AccurateRip вернул [066356E9]
Трек 3 точность не определена (достоверность 7) [97FE3BD6], AccurateRip вернул [83238684]
Трек 4 точность не определена (достоверность 7) [6B971403], AccurateRip вернул [1D390955]
Трек 5 точность не определена (достоверность 7) [CD99F6C1], AccurateRip вернул [25227AF9]
Трек 6 точность не определена (достоверность 7) [F7582ABB], AccurateRip вернул [EB82DB1B]
Трек 7 точность не определена (достоверность 7) [02D2802B], AccurateRip вернул [538AB0EB]
Трек 8 точность не определена (достоверность 7) [2F02BFBD], AccurateRip вернул [2350A805]
Трек 9 точность не определена (достоверность 7) [27E7386E], AccurateRip вернул [0B75EAF2]
Трек 10 точность не определена (достоверность 7) [2E919F4A], AccurateRip вернул [0FFDBB14]
Трек 11 точность не определена (достоверность 7) [64C91F13], AccurateRip вернул [0EBC244B]
Трек 12 точность не определена (достоверность 7) [D79BA3DA], AccurateRip вернул [53108B52]
Трек 13 точность не определена (достоверность 6) [68335247], AccurateRip вернул [8C80E4F5]
Трек 14 точность не определена (достоверность 7) [5607903C], AccurateRip вернул [EE26A7FC]
Трек 15 точность не определена (достоверность 7) [575B3F97], AccurateRip вернул [5EE0D427]
Трек 16 точность не определена (достоверность 7) [D7EBE661], AccurateRip вернул [12447B89]
Трек 17 точность не определена (достоверность 7) [AFC614AD], AccurateRip вернул [2EF66021]
Трек 18 точность не определена (достоверность 7) [BBCED48F], AccurateRip вернул [8921C5D3]

Ни один трек не прошёл проверки на точность
В вашей базе может быть иной вариант штамповки диска

Конец отчёта

––––––––––––––––––––––––––––––

Exact Audio Copy V0.99 prebeta 5 from 4. May 2009

Отчёт EAC об извлечении, выполненном 4. декабря 2012, 13:38

Various / Jazzclub World - Latin Jazz

Дисковод: _NEC DVD_RW ND-4571A Adapter: 0 ID: 0

Режим чтения : Достоверность
Использование точного потока : Да
Отключение кэша аудио : Да
Использование указателей C2 : Нет

Коррекция смещения при чтении : 48
Способность читать области Lead-in и Lead-out : Нет
Заполнение пропущенных сэмплов тишиной : Да
Удаление блоков с тишиной в начале и конце : Нет
При вычислениях CRC использовались нулевые сэмплы : Да
Интерфейс : Встроенный Win32-интерфейс для Win NT/2000

Выходной формат : Пользовательский кодировщик
Выбранный битрейт : 768 kBit/s
Качество : Высокий
Добавление ID3-тэга : Нет
Утилита сжатия : C:\Program Files\Exact Audio Copy\Flac\flac.exe
Дополнительные параметры : -6 -V -T "ARTIST=%a" -T "TITLE=%t" -T "ALBUM=%g" -T "DATE=%y" -T "TRACKNUMBER=%n" -T "GENRE=%m" -T "COMMENT=%e" %s -o %d


TOC извлечённого CD

Трек | Старт | Длительность | Начальный сектор | Конечный сектор
––––––––––––––––––––––––––––––––––-
1 | 0:00.00 | 3:37.44 | 0 | 16318
2 | 3:37.44 | 2:25.68 | 16319 | 27261
3 | 6:03.37 | 2:45.49 | 27262 | 39685
4 | 8:49.11 | 3:06.29 | 39686 | 53664
5 | 11:55.40 | 2:12.51 | 53665 | 63615
6 | 14:08.16 | 2:15.12 | 63616 | 73752
7 | 16:23.28 | 2:01.23 | 73753 | 82850
8 | 18:24.51 | 2:45.07 | 82851 | 95232
9 | 21:09.58 | 2:21.56 | 95233 | 105863
10 | 23:31.39 | 2:48.71 | 105864 | 118534
11 | 26:20.35 | 3:26.01 | 118535 | 133985
12 | 29:46.36 | 2:20.32 | 133986 | 144517
13 | 32:06.68 | 2:30.30 | 144518 | 155797
14 | 34:37.23 | 3:02.20 | 155798 | 169467
15 | 37:39.43 | 1:53.18 | 169468 | 177960
16 | 39:32.61 | 2:40.72 | 177961 | 190032
17 | 42:13.58 | 3:22.40 | 190033 | 205222
18 | 45:36.23 | 2:37.25 | 205223 | 217022


Характеристики диапазона извлечения и сообщения об ошибках

Выбранный диапазон

Имя файла F:\EAC\JazzClub World - Latin Jazz\JazzClub World - Latin Jazz.wav

Пиковый уровень 99.9 %
Качество диапазона 99.9 %
CRC копии E9027882
Копирование… OK

Ошибок не произошло


AccurateRip: сводка

Трек 1 точность не определена (достоверность 7) [8777D80C], AccurateRip вернул [8552D14C]
Трек 2 точность не определена (достоверность 7) [1025A52D], AccurateRip вернул [066356E9]
Трек 3 точность не определена (достоверность 7) [97FE3BD6], AccurateRip вернул [83238684]
Трек 4 точность не определена (достоверность 7) [6B971403], AccurateRip вернул [1D390955]
Трек 5 точность не определена (достоверность 7) [CD99F6C1], AccurateRip вернул [25227AF9]
Трек 6 точность не определена (достоверность 7) [F7582ABB], AccurateRip вернул [EB82DB1B]
Трек 7 точность не определена (достоверность 7) [02D2802B], AccurateRip вернул [538AB0EB]
Трек 8 точность не определена (достоверность 7) [2F02BFBD], AccurateRip вернул [2350A805]
Трек 9 точность не определена (достоверность 7) [27E7386E], AccurateRip вернул [0B75EAF2]
Трек 10 точность не определена (достоверность 7) [2E919F4A], AccurateRip вернул [0FFDBB14]
Трек 11 точность не определена (достоверность 7) [64C91F13], AccurateRip вернул [0EBC244B]
Трек 12 точность не определена (достоверность 7) [D79BA3DA], AccurateRip вернул [53108B52]
Трек 13 точность не определена (достоверность 6) [68335247], AccurateRip вернул [8C80E4F5]
Трек 14 точность не определена (достоверность 7) [5607903C], AccurateRip вернул [EE26A7FC]
Трек 15 точность не определена (достоверность 7) [575B3F97], AccurateRip вернул [5EE0D427]
Трек 16 точность не определена (достоверность 7) [D7EBE661], AccurateRip вернул [12447B89]
Трек 17 точность не определена (достоверность 7) [AFC614AD], AccurateRip вернул [2EF66021]
Трек 18 точность не определена (достоверность 7) [BBCED48F], AccurateRip вернул [8921C5D3]

Ни один трек не прошёл проверки на точность
В вашей базе может быть иной вариант штамповки диска

Конец отчёта

[CUETools log; Date: 31.12.2019 18:50:36; Version: 2.1.4]
[CTDB TOCID: KBwt9BWAFM6r58Au7hHG3YKhIW4-] found.
Track | CTDB Status
1 | (26/27) Accurately ripped
2 | (26/27) Accurately ripped
3 | (26/27) Accurately ripped
4 | (26/27) Accurately ripped
5 | (26/27) Accurately ripped
6 | (26/27) Accurately ripped
7 | (26/27) Accurately ripped
8 | (26/27) Accurately ripped
9 | (26/27) Accurately ripped
10 | (26/27) Accurately ripped
11 | (26/27) Accurately ripped
12 | (26/27) Accurately ripped
13 | (26/27) Accurately ripped
14 | (26/27) Accurately ripped
15 | (26/27) Accurately ripped
16 | (26/27) Accurately ripped
17 | (26/27) Accurately ripped
18 | (26/27) Accurately ripped
[AccurateRip ID: 001f990a-01a280dd-000b4d12] found.
Track [ CRC | V2 ] Status
01 [8777d80c|38be66d6] (00+00/16) No match
02 [1025a52d|826a3bc0] (00+00/16) No match
03 [97fe3bd6|ef3df310] (00+00/16) No match
04 [6b971403|b14cee79] (00+00/16) No match
05 [cd99f6c1|7325fbf7] (00+00/16) No match
06 [f7582abb|1c02596f] (00+00/16) No match
07 [02d2802b|ea75e49b] (00+00/16) No match
08 [2f02bfbd|fb41cb06] (00+00/16) No match
09 [27e7386e|09ec4815] (00+00/16) No match
10 [2e919f4a|da342f53] (00+00/16) No match
11 [64c91f13|a59b2eaf] (00+00/16) No match
12 [d79ba3da|85564183] (00+00/15) No match
13 [68335247|3eb8acc3] (00+00/15) No match
14 [5607903c|779f4402] (00+00/16) No match
15 [575b3f97|4e4c6942] (00+00/16) No match
16 [d7ebe661|d2cbf00c] (00+00/16) No match
17 [afc614ad|05e1c595] (00+00/15) No match
18 [bbced48f|0ee07ed0] (00+00/16) No match
Offsetted by 90:
01 [8552d14c] (07/16) Accurately ripped
02 [066356e9] (07/16) Accurately ripped
03 [83238684] (07/16) Accurately ripped
04 [1d390955] (07/16) Accurately ripped
05 [25227af9] (07/16) Accurately ripped
06 [eb82db1b] (07/16) Accurately ripped
07 [538ab0eb] (07/16) Accurately ripped
08 [2350a805] (07/16) Accurately ripped
09 [0b75eaf2] (07/16) Accurately ripped
10 [0ffdbb14] (07/16) Accurately ripped
11 [0ebc244b] (07/16) Accurately ripped
12 [53108b52] (07/15) Accurately ripped
13 [8c80e4f5] (06/15) Accurately ripped
14 [ee26a7fc] (07/16) Accurately ripped
15 [5ee0d427] (07/16) Accurately ripped
16 [12447b89] (07/16) Accurately ripped
17 [2ef66021] (07/15) Accurately ripped
18 [8921c5d3] (07/16) Accurately ripped

Track Peak [ CRC32 ] [W/O NULL] [ LOG ]
– 99,9 [E9027882] [9D516038]
01 99,9 [99A7C6CB] [122E30C5] [E9027882]
02 99,9 [761D3895] [649EF50F] [E9027882]
03 79,4 [63D3A8E4] [58C3FD79]
04 88,2 [912AFF0E] [6C34E9DB]
05 99,1 [53B84A81] [4AA3050A]
06 99,8 [56CBD6C7] [61F5B8F0]
07 99,9 [26677C01] [7E4E7D4B]
08 99,9 [93212C1A] [32C9BCCA]
09 99,9 [7C15638C] [986C5624]
10 87,2 [86B96466] [9737DA08]
11 98,2 [3D4EE747] [112A085F]
12 99,9 [70ABA3D3] [34ED6F66]
13 99,9 [C9879D62] [2784C2E5]
14 76,1 [717CDEC1] [66D71588]
15 87,4 [1BFDF4B4] [AE044EF8]
16 99,9 [7AC8E350] [348D8318]
17 99,9 [BB4E3FED] [5D7A0666]
18 93,6 [7C3E7A3A] [9532015F]

Thanks to the original releaser