Subcategories

Viktor Khachatryan - The Works of Contemporary Composers

Posted By: Aregak
Viktor Khachatryan - The Works of Contemporary Composers

Viktor Khachatryan - The Works of Contemporary Composers (2009)
EAC Rip | FLAC, IMG+CUE, LOG, Scans (jpg) | 56:17 | 293.6 MB
Classical | Viktor Khachatryan

Khachatryan Viktor (Վիկտոր Խաչատրյան Վազգենի) armenian violin.
Performer: and Track Listings:
1. E. Harutiunyan- Sonata for violin and piano (15:13)
V. Khachatryan (violin), E. Harutiunyan (piano)
2. L. Chaushyan- Sonata for solo violin (12:42)
V. Khachatran (violin)
3. R. Sargsyan- Concerto #2 for violin and chamber orchestra (14:50)
V. Khachatryan (violin), Yerevan Chamber Orchestra, Con. Z. Vardanyan
4. B. Sakkilari- Concerto in the form of partita for violin and symphony orchestra (13:32)
V. Khachatryan (violin), Symphony Orchestra Radio and TV Armenia, Con. G. Mouradyan

Exact Audio Copy V1.0 beta 3 from 29. August 2011

EAC extraction logfile from 9. January 2014, 16:21

Viktor Khachatran / The Works of Contemporary Composers

Used drive : HL-DT-STDVDRAM GH41N Adapter: 1 ID: 0

Read mode : Secure
Utilize accurate stream : Yes
Defeat audio cache : Yes
Make use of C2 pointers : No

Read offset correction : 667
Overread into Lead-In and Lead-Out : No
Fill up missing offset samples with silence : Yes
Delete leading and trailing silent blocks : No
Null samples used in CRC calculations : Yes
Used interface : Installed external ASPI interface

Used output format : User Defined Encoder
Selected bitrate : 192 kBit/s
Quality : High
Add ID3 tag : No
Command line compressor : C:\Program Files\Exact Audio Copy\Flac\flac.exe
Additional command line options : -V -8 -T "Date=%year%" -T "Genre=%genre%" %source%

TOC of the extracted CD

Track | Start | Length | Start sector | End sector
––––––––––––––––––––––––––––-
1 | 0:00.00 | 15:13.57 | 0 | 68531
2 | 15:13.57 | 12:41.44 | 68532 | 125650
3 | 27:55.26 | 14:50.43 | 125651 | 192443
4 | 42:45.69 | 13:32.04 | 192444 | 253347

Range status and errors

Selected range

Filename C:\Program Files\Exact Audio Copy\Flac\Viktor Khachatran - The Works of Contemporary Composers.wav

Peak level 94.9 %
Extraction speed 1.7 X
Range quality 99.9 %
Test CRC D1A991FC
Copy CRC D1A991FC
Copy OK

No errors occurred

End of status report

==== Log checksum D13A3819AE7347D7A67006BF7600E7AD00DB43101C7796E2D85A837ABE111F45 ====