Subcategories
Tags
Language
Tags

Van Morrison - It's Too Late To Stop Now (1974)

Posted By: v3122
Van Morrison - It's Too Late To Stop Now (1974)

Van Morrison - It's Too Late To Stop Now (1974)
EAC | Flac(Image) + Cue + Log & MP3 CBR 320Kbps
2CD | 2008 | Polydor, 530 545 5 | ~ 611 or 228 Mb | Scans
Blues Rock / Classic Rock

While Van Morrison is, to be kind, an erratic and temperamental live performer, he's in stellar form throughout the double album It's Too Late to Stop Now, a superb concert set that neatly summarizes his career from his days with Them (represented by scorching renditions of "Gloria" and "Here Comes the Night") through 1973's Hard Nose the Highway ("Warm Love," "Wild Children"). In addition to the hits, including "Caravan," "Domino," and "Into the Mystic" (the final line of which gives the album its title), Morrison even pulls out a handful of R&B chestnuts ("Bring It on Home to Me," "Ain't Nothin' You Can Do") before capping off the collection with a show-stopping rendition of Astral Weeks' "Cyprus Avenue." An engaging, warm portrait of the man at the peak of his powers.

by Jason Ankeny, AMG

Van Morrison - It's Too Late To Stop Now (1974):

Van Morrison - It's Too Late To Stop Now (1974)

Tracklist CD1:

01. Ain't Nothin' You Can Do 3:47
02. Warm Love 3:04
03. Into The Mystic 4:31
04. This Dreams Of You 3:36
05. I Believe To My Soul 4:08
06. I've Been Working 3:55
07. Help Me 3:25
08. Wild Children 5:04
09. Domino 4:47
10. I Just Wanna Make Love To You 5:14

EAC extraction logfile from 4. February 2006, 14:47 for CD
Van Morrison / It's Too Late To Stop Now - cd1

Used drive : HL-DT-STDVDRAM GSA-4163B Adapter: 1 ID: 0
Read mode : Secure with NO C2, accurate stream, disable cache
Combined read/write offset correction : 667
Overread into Lead-In and Lead-Out : No

Used output format : Internal WAV Routines
44.100 Hz; 16 Bit; Stereo

Other options :
Fill up missing offset samples with silence : Yes
Delete leading and trailing silent blocks : No
Installed external ASPI interface


Range status and errors
Selected range
Filename D:\ape\CD 1.wav

Peak level 100.0 %
Range quality 99.9 %
CRC F91D417C
Copy OK

No errors occured

End of status report

foobar2000 1.2.9 / Dynamic Range Meter 1.1.1
log date: 2015-04-21 10:28:41

––––––––––––––––––––––––––––––––––––––––
Analyzed: Van Morrison / It's Too Late To Stop Now - cd1
––––––––––––––––––––––––––––––––––––––––

DR Peak RMS Duration Track
––––––––––––––––––––––––––––––––––––––––
DR9 -0.04 dB -12.27 dB 3:46 01-Ain't Nothin' You Can Do
DR9 -0.04 dB -10.72 dB 3:04 02-Warm Love
DR10 -0.04 dB -13.72 dB 4:34 03-Into The Mystic
DR10 -0.04 dB -11.94 dB 3:37 04-These Dreams Of You
DR9 -0.04 dB -11.98 dB 4:08 05-I Believe To My Soul
DR9 0.00 dB -11.11 dB 3:56 06-I've Been Working
DR10 -0.14 dB -13.21 dB 3:25 07-Help Me
DR14 -0.68 dB -18.07 dB 5:04 08-Wild Children
DR10 -0.14 dB -11.50 dB 4:48 09-Domino
DR11 -0.14 dB -14.09 dB 5:18 10-I Just Want To Make Love To You
––––––––––––––––––––––––––––––––––––––––

Number of tracks: 10
Official DR value: DR10

Samplerate: 44100 Hz
Channels: 2
Bits per sample: 16
Bitrate: 918 kbps
Codec: FLAC

[CUETools log; Date: 21.04.2015 10:28:47; Version: 2.1.4]
[CTDB TOCID: q3RnzVyUNuJ9pFr0GwWBYDEDM4U-] found.
Track | CTDB Status
1 | (36/37) Accurately ripped
2 | (36/37) Accurately ripped
3 | (36/37) Accurately ripped
4 | (35/37) Accurately ripped
5 | (35/37) Accurately ripped
6 | (36/37) Accurately ripped
7 | (35/37) Accurately ripped
8 | (35/37) Accurately ripped
9 | (35/37) Accurately ripped
10 | (35/37) Accurately ripped
[AccurateRip ID: 000ec67e-00779fd3-7b09c20a] found.
Track [ CRC | V2 ] Status
01 [e20b6e5d|a622cac4] (018+017/156) Accurately ripped
02 [7d71ddb9|ed36d430] (018+017/158) Accurately ripped
03 [103e65b9|25bab698] (018+017/157) Accurately ripped
04 [4715a7e0|01f8a4ee] (018+017/156) Accurately ripped
05 [124c5609|3575eeb8] (018+017/156) Accurately ripped
06 [c6300138|17fa6ca5] (018+017/158) Accurately ripped
07 [93ef7fb3|1b515544] (018+017/157) Accurately ripped
08 [ef57ee2b|a4a12f46] (016+017/153) Accurately ripped
09 [028e527b|233cbcbc] (016+017/155) Accurately ripped
10 [ed400b85|5af273ab] (016+017/154) Accurately ripped
Offsetted by -1519:
01 [df32cb8c] (037/156) Accurately ripped
02 [d8c879ee] (038/158) Accurately ripped
03 [0110f9a8] (038/157) Accurately ripped
04 [e41fe1ea] (038/156) Accurately ripped
05 [ec830374] (038/156) Accurately ripped
06 [5f0643cb] (038/158) Accurately ripped
07 [ee20e5e5] (038/157) Accurately ripped
08 [7894ddbf] (038/153) Accurately ripped
09 [82cb8192] (037/155) Accurately ripped
10 [237c2e0e] (038/154) Accurately ripped

Track Peak [ CRC32 ] [W/O NULL] [ LOG ]
– 100,0 [A1E3EC95] [F91D417C] W/O NULL
01 99,5 [4DAE98E4] [E7E27E18]
02 99,5 [BF4E3E61] [E0574014]
03 99,5 [E414DB65] [5AD439DE]
04 99,5 [FC036A24] [8363D371]
05 99,5 [EEF419EC] [3F0CAE5C]
06 100,0 [ED803B25] [C9BA2471]
07 98,3 [1A297E05] [8730B827]
08 92,4 [AED79066] [029F547F]
09 98,3 [6CDCDE78] [21360B58]
10 98,3 [4890DADD] [22980D1D]

Van Morrison - It's Too Late To Stop Now (1974)

Tracklist CD2:

01. Bring It On Home To Me 4:41
02. Saint Dominic's Preview 6:17
03. Take Your Hand Out Of My Pocket 4:04
04. Listen To The Lion 8:43
05. Here Comes The Night 3:13
06. Gloria 4:14
07. Caravan 9:20
08. Cypress Avenue 10:19

EAC extraction logfile from 4. February 2006, 15:30 for CD
Van Morrison / It's Too Late To Stop Now [CD 2]

Used drive : HL-DT-STDVDRAM GSA-4163B Adapter: 1 ID: 0
Read mode : Secure with NO C2, accurate stream, disable cache
Combined read/write offset correction : 667
Overread into Lead-In and Lead-Out : No

Used output format : Internal WAV Routines
44.100 Hz; 16 Bit; Stereo

Other options :
Fill up missing offset samples with silence : Yes
Delete leading and trailing silent blocks : No
Installed external ASPI interface


Range status and errors
Selected range
Filename D:\ape\Van Morrison - It's Too Late To Stop Now\CD 2\CD 2.wav

Peak level 100.0 %
Range quality 99.9 %
CRC 856DC138
Copy OK

No errors occured

End of status report

foobar2000 1.2.9 / Dynamic Range Meter 1.1.1
log date: 2015-04-21 10:28:59

––––––––––––––––––––––––––––––––––––––––
Analyzed: Van Morrison / It's Too Late To Stop Now [CD 2]
––––––––––––––––––––––––––––––––––––––––

DR Peak RMS Duration Track
––––––––––––––––––––––––––––––––––––––––
DR10 -0.04 dB -13.84 dB 4:43 01-Bring It On Home To Me
DR10 -0.04 dB -11.81 dB 6:18 02-Saint Dominic's Preview
DR10 -0.04 dB -12.52 dB 4:05 03-Take Your Hand Out Of My Pocket
DR12 0.00 dB -16.12 dB 8:43 04-Listen To The Lion
DR10 -0.63 dB -12.64 dB 3:14 05-Here Comes The Night
DR9 -0.64 dB -12.32 dB 4:16 06-Gloria
DR10 -0.64 dB -14.45 dB 9:20 07-Caravan
DR10 -0.64 dB -16.14 dB 10:21 08-Cypress Avenue
––––––––––––––––––––––––––––––––––––––––

Number of tracks: 8
Official DR value: DR10

Samplerate: 44100 Hz
Channels: 2
Bits per sample: 16
Bitrate: 853 kbps
Codec: FLAC

[CUETools log; Date: 21.04.2015 10:29:02; Version: 2.1.4]
[CTDB TOCID: 7OH65DwOTJ_sJ35TsTbQY7NaE7o-] found.
Track | CTDB Status
1 | (37/39) Accurately ripped
2 | (38/39) Accurately ripped
3 | (39/39) Accurately ripped
4 | (39/39) Accurately ripped
5 | (38/39) Accurately ripped
6 | (38/39) Accurately ripped
7 | (37/39) Accurately ripped
8 | (38/39) Accurately ripped
[AccurateRip ID: 000e0c6b-005f4082-670bf308] found.
Track [ CRC | V2 ] Status
01 [a82134bd|5b2e38cc] (014+015/100) Accurately ripped
02 [3f8bf8d6|2094e2ba] (014+015/102) Accurately ripped
03 [5b18cb85|d7b576f3] (014+015/104) Accurately ripped
04 [22f8e626|028cbd0d] (014+015/102) Accurately ripped
05 [d7bca45d|15617849] (014+015/102) Accurately ripped
06 [728b28c7|ba0b2292] (015+016/106) Accurately ripped
07 [e0e8aae2|4175b8f9] (014+015/100) Accurately ripped
08 [60ef7f87|0f3cccdc] (014+016/095) Accurately ripped
Offsetted by -1166:
01 [c9b9d99f] (041/100) Accurately ripped
02 [0d2186d8] (041/102) Accurately ripped
03 [2bfac344] (041/104) Accurately ripped
04 [614bf651] (041/102) Accurately ripped
05 [336b095b] (041/102) Accurately ripped
06 [6014a011] (041/106) Accurately ripped
07 [1db55b01] (040/100) Accurately ripped
08 [10b7f8da] (037/095) Accurately ripped

Track Peak [ CRC32 ] [W/O NULL] [ LOG ]
– 99,9 [8423CBD5] [856DC138] W/O NULL
01 99,5 [81E90764] [D7A90A38]
02 99,5 [B6AD8774] [A69890F0]
03 99,5 [1CBCA198] [D919E48F]
04 99,9 [26B9CB05] [AF8BBDB9]
05 92,9 [A9163CB4] [910F9D9F]
06 92,8 [4D773AC6] [240B9DF5]
07 92,8 [D3807861] [036FA412]
08 92,8 [045CD373] [DBC681D2]

Van Morrison - It's Too Late To Stop Now (1974)

All thanks go to freakout

More Van Morrison in my Blog

Download Van Morrison - It's Too Late To Stop Now (1974):