Subcategories

VA - A Collection of Various Interpretations of Sunny (2000)

Posted By: mook45
VA - A Collection of Various Interpretations of Sunny (2000)

VA - A Collection of Various Interpretations of Sunny (2000)
EAC | FLAC IMG,CUE+LOG = 309MB | MP3@320 = 127MB | 400 dpi Scans
Soul/Jazz/Easy | Label: Roof - TR 20242 | FSo/FSe


As covered by:
Arthur Lyman Group
Georgie Fame
Booker T. & The MG's
Dusty Springfield
John Schroder Orchestra
Robert Mitchum
Stan Kenton
Herbie Mann & Tamiko Jones
Stanley Turrentine
Andy Williams
The Ventures
Cher
Jimmy Smith
Wilson Pickett
Nancy Wilson
Plus Bobby Hebb's original

Exact Audio Copy V0.99 prebeta 5 from 4. May 2009

EAC extraction logfile from 28. December 2009, 16:42

Various / Sunny (A Colection Of Various Interpretations Of)

Used drive : HP DVD Writer 1040r Adapter: 1 ID: 0

Read mode : Secure
Utilize accurate stream : Yes
Defeat audio cache : Yes
Make use of C2 pointers : No

Read offset correction : 6
Overread into Lead-In and Lead-Out : No
Fill up missing offset samples with silence : Yes
Delete leading and trailing silent blocks : No
Null samples used in CRC calculations : Yes
Used interface : Native Win32 interface for Win NT & 2000

Used output format : User Defined Encoder
Selected bitrate : 1024 kBit/s
Quality : High
Add ID3 tag : No
Command line compressor : C:\Program Files\Exact Audio Copy\FLAC\FLAC.EXE
Additional command line options : -5 -V -T "ARTIST=%a" -T "TITLE=%t" -T "ALBUM=%g" -T "DATE=%y" -T "TRACKNUMBER=%n" -T "GENRE=%m" -T "COMMENT=EAC Flac 1.1.2 -5" %s


TOC of the extracted CD

Track | Start | Length | Start sector | End sector
––––––––––––––––––––––––––––-
1 | 0:00.00 | 2:46.29 | 0 | 12478
2 | 2:46.29 | 1:45.67 | 12479 | 20420
3 | 4:32.21 | 2:36.33 | 20421 | 32153
4 | 7:08.54 | 3:27.71 | 32154 | 47749
5 | 10:36.50 | 1:54.38 | 47750 | 56337
6 | 12:31.13 | 2:47.08 | 56338 | 68870
7 | 15:18.21 | 2:44.53 | 68871 | 81223
8 | 18:02.74 | 3:01.13 | 81224 | 94811
9 | 21:04.12 | 2:25.47 | 94812 | 105733
10 | 23:29.59 | 7:21.58 | 105734 | 138866
11 | 30:51.42 | 3:14.24 | 138867 | 153440
12 | 34:05.66 | 2:03.28 | 153441 | 162693
13 | 36:09.19 | 3:10.29 | 162694 | 176972
14 | 39:19.48 | 5:59.67 | 176973 | 203964
15 | 45:19.40 | 3:09.29 | 203965 | 218168
16 | 48:28.69 | 3:56.59 | 218169 | 235927


Range status and errors

Selected range

Filename C:\Users\Mike3\Desktop\A Collection of Various Interpretations of Sunny (Flac)\Various - Sunny (A Colection Of Various Interpretations Of).wav

Peak level 100.0 %
Range quality 100.0 %
Copy CRC 36133EBD
Copy OK

No errors occurred


AccurateRip summary

Track 1 accurately ripped (confidence 3) [CAD85CC0]
Track 2 accurately ripped (confidence 3) [E88EB914]
Track 3 accurately ripped (confidence 3) [31AE3748]
Track 4 accurately ripped (confidence 3) [7A99F93C]
Track 5 accurately ripped (confidence 3) [3211B0DB]
Track 6 accurately ripped (confidence 3) [FCF2172D]
Track 7 accurately ripped (confidence 3) [7E3589FA]
Track 8 accurately ripped (confidence 3) [02BBAA93]
Track 9 accurately ripped (confidence 3) [2A3FDA6C]
Track 10 accurately ripped (confidence 3) [42A45D42]
Track 11 accurately ripped (confidence 3) [BF995CC2]
Track 12 accurately ripped (confidence 3) [F4AFDD5C]
Track 13 accurately ripped (confidence 3) [73D5F27B]
Track 14 accurately ripped (confidence 3) [4085DB25]
Track 15 accurately ripped (confidence 2) [B3F58561]
Track 16 accurately ripped (confidence 3) [25B263BF]

All tracks accurately ripped

End of status report

Files
Lame 320 Kbps = 127MB
Flac 808 Kbps = 309MB

320

http://www.filesonic.com/file/26747059/Sun_3_.rar

Flac

http://www.filesonic.com/file/26747075/Sun_F_.part1.rar
http://www.filesonic.com/file/26746945/Sun_F_.part2.rar

320

http://www.fileserve.com/file/a9dMfwP/Sun_3_.rar

Flac

http://www.fileserve.com/file/DGfFRYH/Sun_F_.part1.rar
http://www.fileserve.com/file/UGB9sqF/Sun_F_.part2.rar

No mirrors