Subcategories

Victoria - Tenebrae Responsories - Pro Cantione Antiqua

Posted By: cayel69
Victoria - Tenebrae Responsories - Pro Cantione Antiqua

Tomás Luis de Victoria - Tenebrae Responsories - Pro Cantione Antiqua
Classical - Renaissance - EAC - FLAC, CUE, LOG - Scans, covers - 276 Mb
Recorded 1978, St. Trudpert - Re-Released 1990
Total time: 67:11
Conductor: Bruno Turner
ADD
Label: Deutsche harmonia mundi GD77056 Editio Classica


Exact Audio Copy V0.99 prebeta 5 from 4. May 2009

Archivo Log de extracciones desde 27. Diciembre 2009, 12:24

Artista desconocido / Título desconocido

Usar unidad : HL-DT-STDVDRAM_GSA-H60N Adapter: 3 ID: 1

Modo de Lectura : Seguro
Utilizar Corriente Exacta : Sí
Descartar Audio caché : No
Utilizar los punteros C2 : No

Corrección de Desplazamiento de Lectura : 667
Sobreleer tanto en Lead-In como en Lead-Out : No
Rellenar las muestras faltantes con silencios : Sí
Eliminar silencios inicial y final : No
Se han usado muestras nulas en los cálculos CRC : No
Interfaz usada : Interfaz propio de Win32 para Windowns NT y 2000

Formato de Salida utilizado : Compresor definido por el usuario
Bitrate seleccionado : 768 kBit/s
Calidad : Alta
Añadir Etiqueta ID3 : No
Compresor de linea de comandos : C:\Program Files\Exact Audio Copy\FLAC\FLAC.EXE
Opciones adicionales en línea de comandos : -6 -V -T "ARTIST=%a" -T "TITLE=%t" -T "ALBUM=%g" -T "DATE=%y" -T "TRACKNUMBER=%n" -T "GENRE=%m" -T "COMMENT=%e" %s -o %d


TOC del CD extraido

Pista | Inicio | Duración | Sector inicial | Sector final
––––––––––––––––––––––––––––––-
1 | 0:00.33 | 3:00.67 | 33 | 13599
2 | 3:01.25 | 2:24.13 | 13600 | 24412
3 | 5:25.38 | 3:37.02 | 24413 | 40689
4 | 9:02.40 | 2:56.63 | 40690 | 53952
5 | 11:59.28 | 2:55.30 | 53953 | 67107
6 | 14:54.58 | 3:57.62 | 67108 | 84944
7 | 18:52.45 | 3:53.50 | 84945 | 102469
8 | 22:46.20 | 4:08.20 | 102470 | 121089
9 | 26:54.40 | 7:01.13 | 121090 | 152677
10 | 33:55.53 | 2:34.07 | 152678 | 164234
11 | 36:29.60 | 3:09.58 | 164235 | 178467
12 | 39:39.43 | 6:10.35 | 178468 | 206252
13 | 45:50.03 | 3:08.50 | 206253 | 220402
14 | 48:58.53 | 3:22.22 | 220403 | 235574
15 | 52:21.00 | 5:21.60 | 235575 | 259709
16 | 57:42.60 | 2:18.10 | 259710 | 270069
17 | 60:00.70 | 2:39.63 | 270070 | 282057
18 | 62:40.58 | 4:30.40 | 282058 | 302347


Gama de estados y errores

Seleccionar gama

Nombre de Archivo C:\Users\Carlos\Desktop\Tomás Luis de Victoria - Tenebrae Responsories - Pro Cantione Antiqua.wav

Nivel Pico 100.0 %
Gama de Calidad 100.0 %
Copiar CRC E199DA4E
Copia OK

Sin Errores


Resumen AccurateRip

Pista 1 extraido de modo preciso (nivel de confianza 1) [BA7D15B0]
Pista 2 extraido de modo preciso (nivel de confianza 1) [F123C7BF]
Pista 3 extraido de modo preciso (nivel de confianza 1) [179F72CE]
Pista 4 extraido de modo preciso (nivel de confianza 1) [1FF71B4B]
Pista 5 extraido de modo preciso (nivel de confianza 1) [4BA3C859]
Pista 6 extraido de modo preciso (nivel de confianza 1) [F3069F17]
Pista 7 extraido de modo preciso (nivel de confianza 1) [BD9B45C0]
Pista 8 extraido de modo preciso (nivel de confianza 1) [84310C2A]
Pista 9 extraido de modo preciso (nivel de confianza 1) [4E2456C1]
Pista 10 extraido de modo preciso (nivel de confianza 1) [DAA3AB33]
Pista 11 extraido de modo preciso (nivel de confianza 1) [018EE0D0]
Pista 12 extraido de modo preciso (nivel de confianza 1) [04443F00]
Pista 13 extraido de modo preciso (nivel de confianza 1) [6D7CCA8E]
Pista 14 extraido de modo preciso (nivel de confianza 1) [DFFA704F]
Pista 15 extraido de modo preciso (nivel de confianza 1) [E30731E2]
Pista 16 extraido de modo preciso (nivel de confianza 1) [15A8CBE9]
Pista 17 extraido de modo preciso (nivel de confianza 1) [A859D9B2]
Pista 18 extraido de modo preciso (nivel de confianza 1) [33423099]

Todas las pistas extraidas de modo preciso

Final del Informe