Tags
Language
Tags

Richard Hickox, Collegium Musicum 90 - Vivaldi: Ottone in villa (1998)

Posted By: ArlegZ
Richard Hickox, Collegium Musicum 90 - Vivaldi: Ottone in villa (1998)

Richard Hickox, Collegium Musicum 90 - Vivaldi: Ottone in villa (1998)
EAC | FLAC | Image (Cue & Log) ~ 663 Mb | Total time: 75:54+68:47 | Digital booklet
Classical | Label: Chandos | # CHAN 0614(2) | Recorded: 1997

This, Vivaldi's very first opera, was premièred in Vicenza in 1713 and was an instant hit. The story is a relatively uncomplicated one by the standards of Baroque opera, of amatory pretences and misunderstandings: it has been admirably summarised by Eric Cross (who has edited the work) as a 'light-weight, amoral entertainment in which the flirtatious Cleonilla consistently has the upper hand, and gullible Emperor Ottone (a far from heroic figure) never discovers the truth about the way he has been deceived'. The score proceeds in a succession of secco recitatives (with just a very occasional accompagnato) and da capo arias – which the present cast ornament very stylishly.
There are no duets or ensembles except for a perfunctory final chorus in which the characters merely sing in unison; but there's an abundance of tuneful arias, and when Vivaldi can be bothered to write proper accompaniments to them – he often merely has violins doubling the voice, plus a bass line – he can provide interesting imitative counterpoint. Several arias employ only the upper strings without cello and bass except in ritornellos. The small Vicenza theatre couldn't afford star singers, so only limited opportunities were provided for vocal virtuosity; but the present cast makes the most of its opportunities, both in display and in meditative mood. It isn't always easy to tell the three sopranos apart, but Susan Gritton well suggests the scheming minx Cleonilla; Nancy Argenta with her bright voice has the castrato role that includes several fine arias, and displays a messa di voce in an echo aria; and Sophie Daneman, in a breeches role, produces a wide range of colour. Monica Groop slightly undercharacterises Ottone except when roused to dismiss Rome's anxiety at his dalliance. It's quite a relief to ear one male voice, and Mark Padmore is excellent. Richard Hickox keeps a firm rhythmic hand on everything and delivers quite the best and neatest Vivaldi operatic recording yet.
— Gramophone Classical Music Guide

Performer:
Cleonilla - Susan Gritton
Ottone - Monica Groop
Caio Silio - Nancy Argenta
Decio - Mark Padmore
Tullia - Sophie Daneman
Collegium Musicum 90
Conductor - Richard Hickox

Track List:
CD1:
01. Sinfonia: Allegro - Larghetto - [Allegro]
ACT I
02. Scene 1. Cleonilla: Nacqui a gran sorte… - Cleonilla: 'Quanto m'alletta'
03. Scene 2. Cleonilla, Caio: Caio… - Caio - 'Sole degl'occhi miei' - Caio, Cleonilla: Ma Cesare qui vien…
04. Scene 3. Ottone, Cleonilla, Caio: Cleonilla, a te ne vengo… - Cleonilla - 'Caro bene'
05. Scene 4. Ottone, Caio: Piu fido amante, e chi mirт giammai?… - Ottone - 'Par tormento, ed e piacer'
06. Scene 5. Caio, Tullia: Quanto di donna amante… - Caio - 'Chi seguir vuol la costanza'
07. Scene 6. Tullia: Ah! Traditor t'intendo… - Tullia - 'Con l'amor di donna amante'
08. Scene 7. Ottone, Cleonilla, Decio: Quanto m'alletti, o cara… - Ottone - 'Frema pur, si lagni Roma'
09. Scene 8. Cleonilla, Decio, Tulia: Grande ho, Decio, il desio… - Decio - 'Il tuo pensiero e lusinghiero'
10. Scene 9. Cleonilla, Tullia: Porgimi il manto, caro… - Cleonilla - 'Che fe, che amor'
11. Scene 10. Caio, Tullia: E Caio aborrirт per fin ch'io viva?… - Tullia - 'Si, si, deggio partir'
12. Scene 11. Caio: E Caio aborrirт per fin ch'io viva?… - Caio - 'Gelosia'
ACT II
13. Scene 1. Decio, Ottone: Spinto Signor son' io… - Ottone - 'Come l'onda'
14. Scene 2. Decio, Caio: A Cesare tradito io dir non volli… - Decio - 'Che giova il trono al Re'
15. Scene 3. Caio, Tullia: Parli Decio che vuol… - Caio, (Tullia - echo) - 'L'ombre, l'aure, e ancora il rio'
CD2:
01. Scene 4. Tullia, Caio: Qual duolo, o Caio, frenetico ti rende?… - Caio - 'Su gl'occhi del tuo ben'
02. Scene 5. Tullia: Disperato e l'infido… - Tullia - 'Due tirani ho nel mio cor[e]'
03. Scene 6. Cleonilla, Caio: Felice e il volto mio… - Caio - 'Leggi almeno, tiranna infedele'
04. Scene 7. Cleonilla, Ottone: Che mai scrisse qui Caio?… - Cleonilla - 'Tu vedrai'
05. Scene 8. Decio, Ottone, Cleonilla: Cesare, io giа prevedo… - Cleonilla - 'Povera fedeltа'
06. Scene 9. Ottone, Decio: Ah Decio, i tuoi ricordi… - Decio - 'Ben talor favella il Cielo'
07. Scene 10. Ottone, Caio: Oh! qual error fec'io… - Ottone - 'Compatisco il tuo fiero tormento'
08. Scene 11. Caio: Quanto Cleonilla e scaltra… - Caio - 'Io sembro appunto'
09. Scene 12. Tullia: Ah, che non vuol sentirmi il traditore… - Tullia - 'Misero spirto mio'
ACT III
10. Scene 1. Decio, Ottone: Signor… - Ottone - 'Tutto sprezzo, e trono, e impero'
11. Scene 2. Decio: Giа di Ottone preveggo… - Decio - 'L'esser amante'
12. Scene 3. Cleonilla, Caio: Cerchi in van ch'io t'ascolti… - Cleonilla - 'No, per te non ho piu amor, no'
13. Scene 4. Tullia, Caio, Cleonilla: Cleonilla… - Caio - 'Guarda in quest'occhi'
14. Scene 5. Cleonilla, Tullia: Quant'ha di vago Amor nel suo gran regno… - Tullia - 'Che bel contento'
15. Scene 6. Caio, CLeonilla, Tullia: Piu soffrir no poss'io…
16. Final Scene. Ottone, Decio, Cleonilla, Caio, Tullia: Caio infierito…
17. Final Scene. Chorus - 'Grande e il contento'


Exact Audio Copy V1.3 from 2. September 2016

EAC extraction logfile from 12. July 2019, 13:48

Susan Gritton, Monica Groop, Nancy Argenta, Mark Padmore, Sophie Daneman, Richard Hickox, Collegium Musicum 90 / Vivaldi - Ottone in Villa CD1

Used drive : HL-DT-STDVDRAM GH24NS95 Adapter: 1 ID: 0

Read mode : Secure
Utilize accurate stream : Yes
Defeat audio cache : Yes
Make use of C2 pointers : No

Read offset correction : 6
Overread into Lead-In and Lead-Out : No
Fill up missing offset samples with silence : Yes
Delete leading and trailing silent blocks : No
Null samples used in CRC calculations : Yes
Used interface : Native Win32 interface for Win NT & 2000

Used output format : User Defined Encoder
Selected bitrate : 128 kBit/s
Quality : High
Add ID3 tag : No
Command line compressor : C:\Program Files\Exact Audio Copy\FLAC\FLAC.EXE
Additional command line options : -V -8 -T "Date=%year%" -T "Genre=%genre%" %source%


TOC of the extracted CD

Track | Start | Length | Start sector | End sector
––––––––––––––––––––––––––––-
1 | 0:00.00 | 4:44.37 | 0 | 21336
2 | 4:44.37 | 5:34.20 | 21337 | 46406
3 | 10:18.57 | 4:21.58 | 46407 | 66039
4 | 14:40.40 | 5:24.00 | 66040 | 90339
5 | 20:04.40 | 4:32.55 | 90340 | 110794
6 | 24:37.20 | 5:17.50 | 110795 | 134619
7 | 29:54.70 | 4:23.17 | 134620 | 154361
8 | 34:18.12 | 5:12.68 | 154362 | 177829
9 | 39:31.05 | 3:46.02 | 177830 | 194781
10 | 43:17.07 | 5:26.18 | 194782 | 219249
11 | 48:43.25 | 3:04.45 | 219250 | 233094
12 | 51:47.70 | 3:53.55 | 233095 | 250624
13 | 55:41.50 | 5:31.50 | 250625 | 275499
14 | 61:13.25 | 4:15.10 | 275500 | 294634
15 | 65:28.35 | 10:22.65 | 294635 | 341349


Range status and errors

Selected range

Filename C:\Program Files\Exact Audio Copy\Flac\Vivaldi - Ottone in Villa CD1.wav

Peak level 98.8 %
Extraction speed 8.3 X
Range quality 100.0 %
Test CRC 7406D292
Copy CRC 7406D292
Copy OK

No errors occurred

End of status report

==== Log checksum C89B3E718FAD0D93139C727A96C5F6F9100E4CF165918D3F4D003CA17E524ECE ====



Exact Audio Copy V1.3 from 2. September 2016

EAC extraction logfile from 12. July 2019, 14:18

Susan Gritton, Monica Groop, Nancy Argenta, Mark Padmore, Sophie Daneman, Richard Hickox, Collegium Musicum 90 / Vivaldi - Ottone in Villa CD2

Used drive : HL-DT-STDVDRAM GH24NS95 Adapter: 1 ID: 0

Read mode : Secure
Utilize accurate stream : Yes
Defeat audio cache : Yes
Make use of C2 pointers : No

Read offset correction : 6
Overread into Lead-In and Lead-Out : No
Fill up missing offset samples with silence : Yes
Delete leading and trailing silent blocks : No
Null samples used in CRC calculations : Yes
Used interface : Native Win32 interface for Win NT & 2000

Used output format : User Defined Encoder
Selected bitrate : 128 kBit/s
Quality : High
Add ID3 tag : No
Command line compressor : C:\Program Files\Exact Audio Copy\FLAC\FLAC.EXE
Additional command line options : -V -8 -T "Date=%year%" -T "Genre=%genre%" %source%


TOC of the extracted CD

Track | Start | Length | Start sector | End sector
––––––––––––––––––––––––––––-
1 | 0:00.00 | 3:03.62 | 0 | 13786
2 | 3:03.62 | 4:40.38 | 13787 | 34824
3 | 7:44.25 | 7:25.00 | 34825 | 68199
4 | 15:09.25 | 5:52.37 | 68200 | 94636
5 | 21:01.62 | 2:49.28 | 94637 | 107339
6 | 23:51.15 | 3:28.10 | 107340 | 122949
7 | 27:19.25 | 6:39.65 | 122950 | 152939
8 | 33:59.15 | 3:52.55 | 152940 | 170394
9 | 37:51.70 | 4:50.17 | 170395 | 192161
10 | 42:42.12 | 4:17.05 | 192162 | 211441
11 | 46:59.17 | 4:27.20 | 211442 | 231486
12 | 51:26.37 | 2:25.70 | 231487 | 242431
13 | 53:52.32 | 6:38.68 | 242432 | 272349
14 | 60:31.25 | 2:38.27 | 272350 | 284226
15 | 63:09.52 | 0:38.48 | 284227 | 287124
16 | 63:48.25 | 4:02.00 | 287125 | 305274
17 | 67:50.25 | 0:54.50 | 305275 | 309374


Range status and errors

Selected range

Filename C:\Program Files\Exact Audio Copy\Flac\Vivaldi - Ottone in Villa CD2.wav

Peak level 96.7 %
Extraction speed 8.0 X
Range quality 100.0 %
Test CRC A814DB4E
Copy CRC A814DB4E
Copy OK

No errors occurred

End of status report

==== Log checksum 59EC4AFC3481540CA43E252215017D3795FE7554CD48046C5C924578133D5F7A ====

Richard Hickox, Collegium Musicum 90 - Vivaldi: Ottone in villa (1998)