Tags
Language
Tags

Robert King, King's Consort - Vivaldi: The Complete Sacred Music (11CDs) [2005]

Posted By: ArlegZ
Robert King,  King's Consort - Vivaldi: The Complete Sacred Music  (11CDs) [2005]

Robert King, King's Consort - Vivaldi: The Complete Sacred Music (11CDs) [2005]
EAC | FLAC | Image (Cue & Log) ~ 3.26 Gb | Total time: 12 hrs 53 mins | Digital booklet
Classical | Label: Hyperion | # CDS 44171/81 | Recorded: 1994-2003

What can anyone add to the praise that has deservedly been heaped on Robert King and the King's Consort's 11 discs of the complete sacred music of Vivaldi? Can one add that every single performance is first class – wonderfully musical, deeply dedicated, and profoundly spiritual? Can one add that every single performer is first class – absolutely in-tune, entirely in-sync, and totally committed? Can one add that every single recording is first class – amazingly clean, astoundingly clear, and astonishingly warm? One can because it's all true and it's all been said before by critics and listeners across the globe. Can one say that every piece is a masterpiece – that every piece is filled with the consummate skill, the irresistible joy, and the radiant spirituality that was Vivaldi's specialty? One can because this, too, is true. From the well-known Gloria, Magnificat, and Stabat Mater to the little known In furore giustissimae irae, O qui coeli terraeque serenitas, and Cur sagittas, cur tela, truly every work is a masterpiece and anyone – from the deeply devout to the deeply doubtful – will love these works, these performances, and these recordings if they love music.
–James Leonard

Performer:
CD1: Sacred Music, Vol. 01
Susan Gritton, soprano
Lisa Milne, soprano
Catherine Denley, contralto
Lynton Atkinson, tenor
David Wilson-Johnson, bass
The Choristers and Choir of The King's Consort
Conductor - Robert King

CD2: Sacred Music, Vol. 02
Debora York, soprano
Catherine Denley, contralto
James Bowman, countertenor
The King's Consort
Conductor - Robert King

CD3: Sacred Music, Vol. 03
Susan Gritton. soprano
Catrin Wyn-Davies, soprano
Catherine Denley, contralto
Charles Daniels, tenor
Neal Davies, bass
Michael George, bass
The Choristers and Choir of The King's Consort
Conductor - Robert King

CD4 & CD5: Sacred Music, Vol. 04
Juditha - Ann Murray, mezzo-soprano
Vagaus - Maria Cristina Kiehr, soprano
Holofernes - Susan Bickley, mezzo-soprano
Abra - Sarah Connolly, mezzo-soprano
Ozias - Jean Rigby, mezzo-soprano
The Choristers and Choir of The King's Consort
Conductor - Robert King

CD6: Sacred Music, Vol. 05
Susan Gritton. soprano
Jean Rigby, contralto
Robin Blaze, countertenor
Charles Daniels, tenor
Neal Davies, bass
The King's Consort
Conductor - Robert King

CD7: Sacred Music, Vol. 06
Susan Gritton. soprano
Nathalie Stutzmann, contralto
Hilary Summers, contralto
Alexandra Gibson, contralto
The Choristers and Choir of The King's Consort
Conductor - Robert King

CD8: Sacred Music, Vol. 07
Susan Gritton. soprano
Carolyn Sampson, soprano
Nathalie Stutzmann, contralto
Charles Daniels, tenor
The Choristers and Choir of The King's Consort
Conductor - Robert King

CD9: Sacred Music, Vol. 08
Susan Gritton. soprano
Tuva Semmingsen, mezzo-soprano
Nathalie Stutzmann, contralto
The King's Consort
Conductor - Robert King

CD10: Sacred Music, Vol. 09
Carolyn Sampson, soprano
Susan Gritton. soprano
Joanne Lunn, soprano
Joyce DiDonato, mezzo-soprano
Nathalie Stutzmann, contralto
The Choristers and Choir of The King's Consort
Conductor - Robert King

CD11: Sacred Music, Vol. 10
Carolyn Sampson, soprano
Joanne Lunn, soprano
Joyce DiDonato, mezzo-soprano
Tuva Semmingsen, mezzo-soprano
Robin Blaze, countertenor
Hilary Summers, contralto
The Choristers and Choir of The King's Consort
Conductor - Robert King


CD1:
Magnificat, RV610a
01. 1. Magnificat
02. 2 Et exsultavit
03. 3 Et misericordia
04. 4. Fecit potentiam
05. 5. Deposuit potentes
06. 6. Esurientes
07. 7. Suscepit Israel
08. 8. Sicut locutus est
09. 9. Gloria
10. Lauda, Jerusalem, RV609
Kyrie, RV587
11. 1 Kyrie eleison
12. 2 Christe eleison
13. 3 Kyrie eleison
Credo, RV591
14. 1. Credo in unum Deum
15. 2. Et incarnatus est
16. 3. Crucifixus
17. 4. Et resurrexit
Dixit Dominus, RV594
18. 1. Dixit Dominus
19. 2. Donec ponam
20. 3. Virgam virtutis tuae
21. 4. Tecum principium
22. 5. Iuravit Dominus
23. 6. Dominus a dextris tuis
24. 7. Iudicabit in nationibus
25. 8. De torrente in via
26. 9. Gloria
27. 10. Sicut erat in principio
CD2:
In furore iustissimae irae, RV626
01. 1. In furore iustissimae irae
02. 2. Miserationem Pater piissime
03. 3. Tunc meus fletus evadet laetus
04. 4. Alleluia
Longe mala, umbrae, terrores, RV629
05. 1. Longe mala, umbrae, terrores
06. 2. Recedite, nubes et fulgura
07. 3. Descende, o caeli vox
08. 4. Alleluia
Clarae stellae, scintillate, RV625
09. 1. Clarae stellae, scintillate
10. 2. Caeli repleti iam novo splendore
11. 3. Nunc iubilare
12. 4. Alleluia
Canta in prato, ride in monte, RV623
13. 1. Canta in prato, ride in monte
14. 2. Saeva fulgescit nobis
15. 3. Avenae rusticae sinceri fervida amoris
16. 4. Alleluia
Filiae maestae Jerusalem, RV638
17. 1. Filiae maestae Jerusalem
18. 2. Sileant zephyri
19. 3. Sed tenebris diffusis
Nulla in mundo pax sincera, RV630
20. 1. Nulla in mundo pax sincera
21. 2. Blando colore oculos mundus decepit
22. 3. Spirat anguis
23. 4. Alleluia
CD3:
Dixit Dominus, RV595
01. 1. Dixit Dominus
02. 2. Donec ponam inimicos tuos
03. 3. Virgam virtutis tuae
04. 4. Tecum principium
05. 5. Iuravit Dominus
06. 6. Dominus a dextris tuis
07. 7. Iudicabit in nationibus
08. 8. De torrente in via bibet
09. 9. Gloria Patri, et Filio
10. 10. Sicut erat in principio
11. 11. Et in saecula saeculorum
Domine ad adiuvandum, RV593
12. 1. Domine ad adiuvandum
13. 2. Gloria Patri, et Filio
14. 3. Sicut erat in principio
15. Credidi propter quod, RV605
16. Beatus vir, RV598
Beatus vir, RV597
17. 1. Beatus vir
18. 2. Potens in terra
19. 3. Beatus vir
20. 4. Gloria et divitiae
21. 5. Beatus vir
22. 6. Exortum est in tenebris
23. 7. Iucundus homo
24. 8. Beatus vir
25. 9. In memoria aeterna
26. 10. Beatus vir
27. 11. Paratum cor eius
28. 12. Peccator videbit
29. 13. Beatus vir
30. 14. Gloria Patri, et Filio
CD4:
Juditha Triumphans devicta Holofernes barbarie, RV644
01. Overture - Allegro
02. Overture - Largo
03. Part I. Coro: Arma, caedes, vindictae, furores (Assyrian Soldiers)
04. Recitativo: Felix en fausta dies (Holofernes)
05. Aria: Nil arma, nil bella (Holofernes)
06. Recitativo: Mi Dux, Domine mi (Vagaus)
07. Aria: Matrona inimica (Vagaus)
08. Recitativo: Huc accedat Matrona (Holofernes)
09. Aria: Quo cum Patriae me ducit amore (Juditha)
10. Recitativo: Ne timeas non (Abra)
11. Aria: Vultus tui vago splendori (Abra)
12. Recitativo: Vide, humilis prostrata (Abra)
13. Coro: O quam vaga, venusta, o quam decora (Vagaus/Assyrian Soldiers)
14. Recitativo: Quem vides prope, aspectu (Vagaus)
15. Aria: Quamvis ferro et ense gravis (Vagaus)
16. Recitativo: Quid cerno! Oculi mei (Holofernes)
17. Aria: Quanto magis generosa (Holofernes)
18. Recitativo: Magna, o foemina, petis (Holofernes)
19. Aria: Sede, o cara (Holofernes)
20. Recitativo: Tu Judex es, tu Dominus, tu potens (Juditha)
21. Aria: Agitata infido flatu (Juditha)
22. Recitativo: In tentorio supernae (Holofernes)
23. Aria & Coro: O servi, volate (Vagaus/Servants)
24. Recitativo: Tu quoque hebraica ancilla (Vagaus)
25. Aria: Veni, veni me sequere fida (Juditha)
26. Recitativo: Venio, Juditha, venio, animo fave (Abra)
27. Aria: Fulgeat sol frontis decorae (Abra)
28. Recitativo: In Urbe interim pia (Abra)
29. Coro: Mundi Rector de caelo micanti (Bethulians)
CD5:
Juditha Triumphans devicta Holofernes barbarie, RV644
01. Part II. Recitativo: Summi Regis in mente (Ozias)
02. Aria: O Sydera, o stellae (Ozias)
03. Recitativo: Jam saevientis in hostem (Ozias)
04. Recitativo: Nox in umbra dum surgit (Holofernes)
05. Aria: Nox obscura tenebrosa (Holofernes)
06. Recitativo: Belligerae meae sorti (Holofernes)
07. Aria: Transit aetas (Juditha)
08. Recitativo: Haec in crastinum serva. Ah, nimis vere (Holofernes)
09. Aria: Noli, o cara, te adorantis (Holofernes)
10. Recitativo: Tibi dona salutis (Juditha)
11. Coro: Plena nectare non mero (Assyrian Soldiers)
12. Recitativo: Tormenta mentis tuae fugiant a corde (Holofernes)
13. Aria: Vivat in pace, et pax regnet sincera (Juditha)
14. PRecitativo: Sic in pace inter hostes (Juditha)
15. Aria: Umbrae carae, aurae adoratae (Vagaus)
16. Recitativo: Quae fortunata es tu vaga Matrona (Vagaus)
17. Aria: Non ita reducem (Abra)
18. Recitativo: Jam pergo, postes claudo (Abra)
19. Accompagnato: Summe Astrorum Creator (Juditha)
20. Aria: In somno profundo (Juditha)
21. Accompagnato: Impii, indigni Tiranni (Juditha)
22. Recitativo: Abra, Abra, accipe munus (Juditha)
23. Aria: Si fulgida per te propitia caeli fax (Abra)
24. Recitativo: Jam non procul ab axe (Vagaus)
25. Aria: Armatae face, et anguibus (Vagaus)
26. Recitativo: Quam insolita luce (Ozias)
27. Aria: Gaude Felix (Ozias)
28. Accompagnato: Ita decreto aeterno (Ozias)
29. Coro: Salve, invicta Juditha, formosa (Judeans)
CD6:
In turbato mare irato, RV627
01. 1. In turbato mare irato
02. 2. Splende serena, o lux amata
03. 3. Resplende, bella
04. 4. Alleluia
Non in pratis aut in hortis, RV641
05. 1. Non in pratis aut in hortis
06. 2. Ibi spinis confixus
07. 3. Pro me caput spinas habet
08. 4. Quaesone facias, Domine
Stabat mater, RV621
09. 1. Stabat mater dolorosa
10. 2. Cuius animam gementem
11. 3. O quam tristis et afflicta
12. 4. Quis est homo, qui non fleret
13. 5. Quis non posset contristari
14. 6. Pro peccatis suae gentis
15. 7. Eia Mater, fons amoris
16. 8. Fac ut ardeat cor meum
17. 9. Amen
O qui caeli terraeque serenitas, RV631
18. 1. O qui caeli terraeque serenitas
19. 2. Fac ut sordescat tellus
20. 3. Rosa quae moritur
21. 4. Alleluia
22. Deus tuorum militum, RV612
Confitebor tibi, Domine, RV596
23. 1. Confitebor tibi, Domine
24. 2. Memoriam fecit mirabilium suorum
25. 3. Sanctum et terribile nomen eius
26. 4. Intellectus bonus omnibus
27. 5. Gloria Patri, et Filio
28. 6. Et in saecula saeculorum
CD7:
Beatus vir, RV795
01. 1. Beatus vir
02. 2. Gloria et divitiae
03. 3. Beatus vir
04. 4. Exortum est in tenebris
05. 5. Beatus vir
06. 6. Iucundus homo
07. 7. Beatus vir
08. 8. In memoria aeterna
09. 9. Beatus vir
10. 10. Paratum cor eius
11. 11. Beatus vir
12. 12. Dispersit, dedit pauperibus
13. 13. Beatus vir
14. 14. Peccator videbit
15. 15. Gloria Patri, et Filio
Salve regina, RV617
16. 1. Salve regina
17. 2. Ad te clamamus
18. 3. Eia ergo
19. 4. Et Jesum
20. Laudate Dominum, RV606
21. In exitu Israel, RV604
Nisi Dominus, RV608
22. 1. Nisi Dominus
23. 2. Vanum est vobis
24. 3. Surgite
25. 4. Cum dederit
26. 5. Sicut sagittae
27. 6. Beatus vir
28. 7. Gloria
29. 8. Sicut erat in principio
30. 9. Amen
CD8:
01. Laetatus sum, RV607
Laudate pueri, RV601
02. 1. Laudate pueri Dominum
03. 2. Sit nomen Domini
04. 3. A solis ortu usque ad occasum
05. 4. Excelsus super omnes gentes
06. 5. Suscitans a terra inopem
07. 6. Ut collocet eum
08. 7. Gloria Patri
09. 8. Gloria Patri
10. 9. Amen
Vestro Principi divino, RV633
11. 1. Vestro Principi divino
12. 2. O felix culpa
13. 3. Quid loqueris ad cor
14. 4. Alleluia
Jubilate, o amoeni chori, RV639
15. 1. Jubilate, o amoeni chori
16. 2. In tam solemni pompa
Gloria in excelsis Deo, RV588
17. 1. Sonoro modulamine – Gloria in excelsis Deo
18. 2. Et in terra pax hominibus
19. 3. Laudamus te
20. 4. Gratias agimus tibi
21. 5. Domine Deus, Rex caelestis
22. 6. Domine Fili unigenite
23. 7. Domine Deus, agnus Dei
24. 8. Qui tollis peccata mundi
25. 9. Qui sedes ad dexteram Patris
26. 10. Quoniam tu solus sanctus
27. 11. Cum Sancto Spiritu
CD9:
Sum in medio tempestatum, RV632
01. 1. Sum in medio tempestatum
02. 2. Quid ergo faciam
03. 3. Semper maesta
04. 4. Alleluia
Laudate pueri, RV600
05. 1. Laudate pueri
06. 2. Sit nomen Domini
07. 3. A solis ortu usque ad occasum
08. 4. Excelsus super omnes gentes
09. 5. Quis sicut Dominus
10. 6. Suscitans a terra inopem
11. 7. Ut collocet eum
12. 8. Gloria Patri
13. 9. Laudate pueri – Sicut erat in principio
14. 10. Amen
Cur sagittas, cur tela, RV637
15. 1. Cur sagittas, cur tela
16. 2. Hostibus circumventa
17. 3. In te, beate Pater
18. Sanctorum meritis, RV620
Salve regina, RV616
19. 1. Salve regina
20. 2. Ad te clamamus
21. 3. Ad te suspiramus
22. 4. Eia ergo advocata
23. 5. Et Jesum benedictum
24. 6. O clemens, o pia
CD10:
Laudate pueri, RV602
01. 1. Laudate pueri Dominum
02. 2. A solis ortu
03. 3. Excelsus super omnes
04. 4. Sit nomen Domini
05. 5. Suscitans a terra
06. 6. Ut collocet eum
07. 7. Sit nomen Domini
08. 8. Gloria Patri
09. 9. Sicut erat in principio
Salve regina, RV618
10. 1. Salve regina
11. 2. Ad te clamamus
12. 3. Ad te suspiramus
13. 4. Eia ergo advocata
14. 5. Et Jesum benedictum
15. 6. O clemens, o pia
Ascende laeta, RV635
16. 1. Ascende laeta
17. 2. Quam pulchri
18. 3. Sternite, Angeli
19. Gaude mater Ecclesia, RV613
Vos aurae per montes, RV634
20. 1. Vos aurae per montes
21. 2. Cuncta orbis
22. 3. Tellus, astra
23. 4. Alleluia
24. Gloria Patri, RV602a
CD11:
Gloria, RV589
01. 1. Gloria in excelsis Deo
02. 2. Et in terra pax
03..3. Laudamus te
04. 4. Gratias agimus tibi
05. 5. Propter magnam gloriam tuam
06. 6. Domine Deus, rex caelestis
07. 7. Domine Fili unigenite
08. 8. Domine Deus, agnus Dei
09. 9. Qui tollis peccata mundi
10. 10. Qui sedes ad dexteram Patris
11. 11. Quoniam tu solus sanctus
12. 12. Cum Sancto Spiritu
Nisi Dominus, RV803
13. 1. Nisi Dominus aedificaverit
14. 2. Nisi Dominus custodierit
15. 3. Vanum est vobis
16. 4. Cum dederit
17. 5. Sicut sagittae
18. 6. Beatus vir
19. 7. Gloria Patri
20. 8. Sicut erat in principio
Ostro picta, RV642
21. 1. Ostro picta
22. 2. Sic transiit
23. 3. Linguis favete
Gloria, RV Anh.23 Giovanni Maria Ruggieri (fl c1690-1720)
24. 1. Gloria in excelsis Deo
25. 2. Et in terra pax
26. 3. Laudamus te
27. 4. Gratias agimus tibi
28. 5. Domine Deus, rex caelestis
29. 6. Domine Fili unigenite
30. 7. Domine Deus, agnus Dei
31. 8. Qui tollis peccata mundi
32. 9. Qui sedes ad dexteram Patris
33. 10. Quoniam tu solus sanctus
34. 11. Cum Sancto Spiritu



Exact Audio Copy V1.3 from 2. September 2016

EAC extraction logfile from 11. February 2019, 16:39

Robert King, The King's Consort / Vivaldi - Sacred Music Vol.1

Used drive : HL-DT-STDVDRAM GH24NS95 Adapter: 1 ID: 0

Read mode : Secure
Utilize accurate stream : Yes
Defeat audio cache : Yes
Make use of C2 pointers : No

Read offset correction : 6
Overread into Lead-In and Lead-Out : No
Fill up missing offset samples with silence : Yes
Delete leading and trailing silent blocks : No
Null samples used in CRC calculations : Yes
Used interface : Native Win32 interface for Win NT & 2000

Used output format : User Defined Encoder
Selected bitrate : 128 kBit/s
Quality : High
Add ID3 tag : No
Command line compressor : C:\Program Files\Exact Audio Copy\FLAC\FLAC.EXE
Additional command line options : -V -8 -T "Date=%year%" -T "Genre=%genre%" %source%


TOC of the extracted CD

Track | Start | Length | Start sector | End sector
––––––––––––––––––––––––––––-
1 | 0:00.32 | 1:06.30 | 32 | 5011
2 | 1:06.62 | 2:08.58 | 5012 | 14669
3 | 3:15.45 | 3:09.70 | 14670 | 28914
4 | 6:25.40 | 0:28.65 | 28915 | 31079
5 | 6:54.30 | 0:55.20 | 31080 | 35224
6 | 7:49.50 | 1:47.22 | 35225 | 43271
7 | 9:36.72 | 0:49.40 | 43272 | 46986
8 | 10:26.37 | 1:43.03 | 46987 | 54714
9 | 12:09.40 | 1:52.70 | 54715 | 63184
10 | 14:02.35 | 7:24.65 | 63185 | 96549
11 | 21:27.25 | 3:55.62 | 96550 | 114236
12 | 25:23.12 | 2:39.68 | 114237 | 126229
13 | 28:03.05 | 2:16.72 | 126230 | 136501
14 | 30:20.02 | 2:12.05 | 136502 | 146406
15 | 32:32.07 | 1:29.20 | 146407 | 153101
16 | 34:01.27 | 2:30.20 | 153102 | 164371
17 | 36:31.47 | 3:09.08 | 164372 | 178554
18 | 39:40.55 | 2:11.40 | 178555 | 188419
19 | 41:52.20 | 3:09.17 | 188420 | 202611
20 | 45:01.37 | 2:09.55 | 202612 | 212341
21 | 47:11.17 | 2:41.13 | 212342 | 224429
22 | 49:52.30 | 2:04.20 | 224430 | 233749
23 | 51:56.50 | 1:50.37 | 233750 | 242036
24 | 53:47.12 | 2:02.15 | 242037 | 251201
25 | 55:49.27 | 2:51.70 | 251202 | 264096
26 | 58:41.22 | 1:21.73 | 264097 | 270244
27 | 60:03.20 | 2:41.15 | 270245 | 282334


Range status and errors

Selected range

Filename C:\Program Files\Exact Audio Copy\Flac\Vivaldi - Sacred Music Vol.1.wav

Peak level 98.3 %
Extraction speed 1.8 X
Range quality 100.0 %
Test CRC 85043851
Copy CRC 85043851
Copy OK

No errors occurred

End of status report

==== Log checksum 67B5811054AFF19FE3F1DEB6894281FA53A3EB9260B8215425CC3FA55F7110A8 ====


Exact Audio Copy V1.3 from 2. September 2016

EAC extraction logfile from 11. February 2019, 18:07

Robert King, The King's Consort / Vivaldi - Sacred Music Vol. 2

Used drive : HL-DT-STDVDRAM GH24NS95 Adapter: 1 ID: 0

Read mode : Secure
Utilize accurate stream : Yes
Defeat audio cache : Yes
Make use of C2 pointers : No

Read offset correction : 6
Overread into Lead-In and Lead-Out : No
Fill up missing offset samples with silence : Yes
Delete leading and trailing silent blocks : No
Null samples used in CRC calculations : Yes
Used interface : Native Win32 interface for Win NT & 2000

Used output format : User Defined Encoder
Selected bitrate : 128 kBit/s
Quality : High
Add ID3 tag : No
Command line compressor : C:\Program Files\Exact Audio Copy\FLAC\FLAC.EXE
Additional command line options : -V -8 -T "Date=%year%" -T "Genre=%genre%" %source%


TOC of the extracted CD

Track | Start | Length | Start sector | End sector
––––––––––––––––––––––––––––-
1 | 0:00.32 | 4:44.53 | 32 | 21384
2 | 4:45.10 | 0:34.45 | 21385 | 23979
3 | 5:19.55 | 5:53.52 | 23980 | 50506
4 | 11:13.32 | 1:47.25 | 50507 | 58556
5 | 13:00.57 | 5:26.25 | 58557 | 83031
6 | 18:27.07 | 0:31.08 | 83032 | 85364
7 | 18:58.15 | 6:53.60 | 85365 | 116399
8 | 25:52.00 | 2:38.17 | 116400 | 128266
9 | 28:30.17 | 5:23.03 | 128267 | 152494
10 | 33:53.20 | 0:41.02 | 152495 | 155571
11 | 34:34.22 | 2:21.48 | 155572 | 166194
12 | 36:55.70 | 2:33.42 | 166195 | 177711
13 | 39:29.37 | 3:58.53 | 177712 | 195614
14 | 43:28.15 | 0:47.40 | 195615 | 199179
15 | 44:15.55 | 2:23.67 | 199180 | 209971
16 | 46:39.47 | 1:19.10 | 209972 | 215906
17 | 47:58.57 | 2:08.10 | 215907 | 225516
18 | 50:06.67 | 4:35.55 | 225517 | 246196
19 | 54:42.47 | 1:00.55 | 246197 | 250751
20 | 55:43.27 | 6:57.55 | 250752 | 282081
21 | 62:41.07 | 1:03.73 | 282082 | 286879
22 | 63:45.05 | 3:17.25 | 286880 | 301679
23 | 67:02.30 | 2:13.02 | 301680 | 311656


Range status and errors

Selected range

Filename C:\Program Files\Exact Audio Copy\Flac\Vivaldi - Sacred Music Vol. 2.wav

Peak level 94.0 %
Extraction speed 2.0 X
Range quality 100.0 %
Test CRC 1BA9493F
Copy CRC 1BA9493F
Copy OK

No errors occurred

End of status report

==== Log checksum 2DC47BF4D4D8800E93F71B1722F7D78F5C95309ABA0F0D436369F5793D0A76EA ====


Exact Audio Copy V1.3 from 2. September 2016

EAC extraction logfile from 11. February 2019, 19:28

Robert King, The King's Consort / Vivaldi - Sacred Music Vol. 3

Used drive : HL-DT-STDVDRAM GH24NS95 Adapter: 1 ID: 0

Read mode : Secure
Utilize accurate stream : Yes
Defeat audio cache : Yes
Make use of C2 pointers : No

Read offset correction : 6
Overread into Lead-In and Lead-Out : No
Fill up missing offset samples with silence : Yes
Delete leading and trailing silent blocks : No
Null samples used in CRC calculations : Yes
Used interface : Native Win32 interface for Win NT & 2000

Used output format : User Defined Encoder
Selected bitrate : 128 kBit/s
Quality : High
Add ID3 tag : No
Command line compressor : C:\Program Files\Exact Audio Copy\FLAC\FLAC.EXE
Additional command line options : -V -8 -T "Date=%year%" -T "Genre=%genre%" %source%


TOC of the extracted CD

Track | Start | Length | Start sector | End sector
––––––––––––––––––––––––––––-
1 | 0:00.32 | 2:08.30 | 32 | 9661
2 | 2:08.62 | 2:41.18 | 9662 | 21754
3 | 4:50.05 | 2:20.10 | 21755 | 32264
4 | 7:10.15 | 2:05.07 | 32265 | 41646
5 | 9:15.22 | 1:23.55 | 41647 | 47926
6 | 10:39.02 | 1:40.60 | 47927 | 55486
7 | 12:19.62 | 2:51.38 | 55487 | 68349
8 | 15:11.25 | 2:36.70 | 68350 | 80119
9 | 17:48.20 | 1:42.57 | 80120 | 87826
10 | 19:31.02 | 0:49.50 | 87827 | 91551
11 | 20:20.52 | 2:59.55 | 91552 | 105031
12 | 23:20.32 | 2:26.08 | 105032 | 115989
13 | 25:46.40 | 2:46.05 | 115990 | 128444
14 | 28:32.45 | 2:05.60 | 128445 | 137879
15 | 30:38.30 | 7:11.37 | 137880 | 170241
16 | 37:49.67 | 7:22.20 | 170242 | 203411
17 | 45:12.12 | 2:20.53 | 203412 | 213964
18 | 47:32.65 | 2:00.25 | 213965 | 222989
19 | 49:33.15 | 0:28.25 | 222990 | 225114
20 | 50:01.40 | 2:31.35 | 225115 | 236474
21 | 52:33.00 | 0:30.45 | 236475 | 238769
22 | 53:03.45 | 3:10.47 | 238770 | 253066
23 | 56:14.17 | 2:03.30 | 253067 | 262321
24 | 58:17.47 | 0:29.40 | 262322 | 264536
25 | 58:47.12 | 3:38.25 | 264537 | 280911
26 | 62:25.37 | 0:32.13 | 280912 | 283324
27 | 62:57.50 | 1:53.20 | 283325 | 291819
28 | 64:50.70 | 2:45.15 | 291820 | 304209
29 | 67:36.10 | 0:28.05 | 304210 | 306314
30 | 68:04.15 | 2:29.15 | 306315 | 317504


Range status and errors

Selected range

Filename C:\Program Files\Exact Audio Copy\Flac\Vivaldi - Sacred Music Vol. 3.wav

Peak level 96.1 %
Extraction speed 2.0 X
Range quality 100.0 %
Test CRC 89C2EA7C
Copy CRC 89C2EA7C
Copy OK

No errors occurred

End of status report

==== Log checksum 50B9812DA4012AAA784250CEB984005A44665FF71C419427172E3320EABBCE92 ====


Exact Audio Copy V1.3 from 2. September 2016

EAC extraction logfile from 11. February 2019, 20:30

Robert King, The King's Consort / Vivaldi - Juditha Triumphans CD1

Used drive : HL-DT-STDVDRAM GH24NS95 Adapter: 1 ID: 0

Read mode : Secure
Utilize accurate stream : Yes
Defeat audio cache : Yes
Make use of C2 pointers : No

Read offset correction : 6
Overread into Lead-In and Lead-Out : No
Fill up missing offset samples with silence : Yes
Delete leading and trailing silent blocks : No
Null samples used in CRC calculations : Yes
Used interface : Native Win32 interface for Win NT & 2000

Used output format : User Defined Encoder
Selected bitrate : 128 kBit/s
Quality : High
Add ID3 tag : No
Command line compressor : C:\Program Files\Exact Audio Copy\FLAC\FLAC.EXE
Additional command line options : -V -8 -T "Date=%year%" -T "Genre=%genre%" %source%


TOC of the extracted CD

Track | Start | Length | Start sector | End sector
––––––––––––––––––––––––––––-
1 | 0:00.00 | 3:51.55 | 0 | 17379
2 | 3:51.55 | 1:54.37 | 17380 | 25966
3 | 5:46.17 | 3:47.70 | 25967 | 43061
4 | 9:34.12 | 0:42.70 | 43062 | 46281
5 | 10:17.07 | 3:29.43 | 46282 | 61999
6 | 13:46.50 | 0:27.32 | 62000 | 64056
7 | 14:14.07 | 6:00.25 | 64057 | 91081
8 | 20:14.32 | 1:05.28 | 91082 | 95984
9 | 21:19.60 | 4:45.42 | 95985 | 117401
10 | 26:05.27 | 0:16.10 | 117402 | 118611
11 | 26:21.37 | 3:13.70 | 118612 | 133156
12 | 29:35.32 | 0:34.60 | 133157 | 135766
13 | 30:10.17 | 1:54.45 | 135767 | 144361
14 | 32:04.62 | 0:32.70 | 144362 | 146831
15 | 32:37.57 | 3:32.50 | 146832 | 162781
16 | 36:10.32 | 1:27.65 | 162782 | 169371
17 | 37:38.22 | 9:32.25 | 169372 | 212296
18 | 47:10.47 | 0:55.40 | 212297 | 216461
19 | 48:06.12 | 3:43.53 | 216462 | 233239
20 | 51:49.65 | 1:11.57 | 233240 | 238621
21 | 53:01.47 | 3:29.63 | 238622 | 254359
22 | 56:31.35 | 0:33.52 | 254360 | 256886
23 | 57:05.12 | 3:08.65 | 256887 | 271051
24 | 60:14.02 | 0:40.28 | 271052 | 274079
25 | 60:54.30 | 7:06.10 | 274080 | 306039
26 | 68:00.40 | 0:13.37 | 306040 | 307051
27 | 68:14.02 | 4:08.73 | 307052 | 325724
28 | 72:23.00 | 0:32.27 | 325725 | 328151
29 | 72:55.27 | 5:12.60 | 328152 | 351611


Range status and errors

Selected range

Filename C:\Program Files\Exact Audio Copy\Flac\Vivaldi - Juditha Triumphans CD1.wav

Peak level 98.8 %
Extraction speed 8.3 X
Range quality 99.9 %
Test CRC BBA59697
Copy CRC BBA59697
Copy OK

No errors occurred

End of status report

==== Log checksum 9BAA0EBF2BB26E527AF64A0F93DA3AB56213B4DA3084DB014798B205968C40F2 ====


Exact Audio Copy V1.3 from 2. September 2016

EAC extraction logfile from 11. February 2019, 21:12

Robert King, The King's Consort / Vivaldi - Juditha Triumphans CD2

Used drive : HL-DT-STDVDRAM GH24NS95 Adapter: 1 ID: 0

Read mode : Secure
Utilize accurate stream : Yes
Defeat audio cache : Yes
Make use of C2 pointers : No

Read offset correction : 6
Overread into Lead-In and Lead-Out : No
Fill up missing offset samples with silence : Yes
Delete leading and trailing silent blocks : No
Null samples used in CRC calculations : Yes
Used interface : Native Win32 interface for Win NT & 2000

Used output format : User Defined Encoder
Selected bitrate : 128 kBit/s
Quality : High
Add ID3 tag : No
Command line compressor : C:\Program Files\Exact Audio Copy\FLAC\FLAC.EXE
Additional command line options : -V -8 -T "Date=%year%" -T "Genre=%genre%" %source%


TOC of the extracted CD

Track | Start | Length | Start sector | End sector
––––––––––––––––––––––––––––-
1 | 0:00.00 | 0:57.40 | 0 | 4314
2 | 0:57.40 | 3:58.65 | 4315 | 22229
3 | 4:56.30 | 0:25.35 | 22230 | 24139
4 | 5:21.65 | 0:32.22 | 24140 | 26561
5 | 5:54.12 | 6:18.43 | 26562 | 54954
6 | 12:12.55 | 0:59.60 | 54955 | 59439
7 | 13:12.40 | 5:50.12 | 59440 | 85701
8 | 19:02.52 | 0:33.43 | 85702 | 88219
9 | 19:36.20 | 5:48.45 | 88220 | 114364
10 | 25:24.65 | 0:23.42 | 114365 | 116131
11 | 25:48.32 | 2:22.68 | 116132 | 126849
12 | 28:11.25 | 0:28.55 | 126850 | 129004
13 | 28:40.05 | 4:50.37 | 129005 | 150791
14 | 33:30.42 | 0:40.55 | 150792 | 153846
15 | 34:11.22 | 5:41.68 | 153847 | 179489
16 | 39:53.15 | 1:50.07 | 179490 | 187746
17 | 41:43.22 | 3:49.18 | 187747 | 204939
18 | 45:32.40 | 0:22.40 | 204940 | 206629
19 | 45:55.05 | 1:28.57 | 206630 | 213286
20 | 47:23.62 | 4:35.48 | 213287 | 233959
21 | 51:59.35 | 0:43.32 | 233960 | 237216
22 | 52:42.67 | 0:47.48 | 237217 | 240789
23 | 53:30.40 | 4:02.17 | 240790 | 258956
24 | 57:32.57 | 1:12.30 | 258957 | 264386
25 | 58:45.12 | 3:23.10 | 264387 | 279621
26 | 62:08.22 | 1:07.23 | 279622 | 284669
27 | 63:15.45 | 3:35.52 | 284670 | 300846
28 | 66:51.22 | 1:18.65 | 300847 | 306761
29 | 68:10.12 | 2:07.60 | 306762 | 316346


Range status and errors

Selected range

Filename C:\Program Files\Exact Audio Copy\Flac\Vivaldi - Juditha Triumphans CD2.wav

Peak level 97.7 %
Extraction speed 8.1 X
Range quality 100.0 %
Test CRC 915B3F9C
Copy CRC 915B3F9C
Copy OK

No errors occurred

End of status report

==== Log checksum 2AB0FDCDF08F78E13E92CE8E4BDF31CA79C7C0E6B6979BBBDA0E97D026F2C33E ====


Exact Audio Copy V1.3 from 2. September 2016

EAC extraction logfile from 11. February 2019, 21:51

Robert King, The King's Consort / Vivaldi - Sacred Music Vol. 5

Used drive : HL-DT-STDVDRAM GH24NS95 Adapter: 1 ID: 0

Read mode : Secure
Utilize accurate stream : Yes
Defeat audio cache : Yes
Make use of C2 pointers : No

Read offset correction : 6
Overread into Lead-In and Lead-Out : No
Fill up missing offset samples with silence : Yes
Delete leading and trailing silent blocks : No
Null samples used in CRC calculations : Yes
Used interface : Native Win32 interface for Win NT & 2000

Used output format : User Defined Encoder
Selected bitrate : 128 kBit/s
Quality : High
Add ID3 tag : No
Command line compressor : C:\Program Files\Exact Audio Copy\FLAC\FLAC.EXE
Additional command line options : -V -8 -T "Date=%year%" -T "Genre=%genre%" %source%


TOC of the extracted CD

Track | Start | Length | Start sector | End sector
––––––––––––––––––––––––––––-
1 | 0:00.00 | 6:32.60 | 0 | 29459
2 | 6:32.60 | 0:43.67 | 29460 | 32751
3 | 7:16.52 | 5:49.43 | 32752 | 58969
4 | 13:06.20 | 2:29.17 | 58970 | 70161
5 | 15:35.37 | 0:54.08 | 70162 | 74219
6 | 16:29.45 | 1:41.07 | 74220 | 81801
7 | 18:10.52 | 8:49.25 | 81802 | 121501
8 | 27:00.02 | 0:55.03 | 121502 | 125629
9 | 27:55.05 | 2:47.15 | 125630 | 138169
10 | 30:42.20 | 1:48.65 | 138170 | 146334
11 | 32:31.10 | 1:56.32 | 146335 | 155066
12 | 34:27.42 | 2:58.63 | 155067 | 168479
13 | 37:26.30 | 1:50.62 | 168480 | 176791
14 | 39:17.17 | 2:00.40 | 176792 | 185831
15 | 41:17.57 | 2:47.13 | 185832 | 198369
16 | 44:04.70 | 1:18.60 | 198370 | 204279
17 | 45:23.55 | 1:21.67 | 204280 | 210421
18 | 46:45.47 | 5:12.53 | 210422 | 233874
19 | 51:58.25 | 0:32.05 | 233875 | 236279
20 | 52:30.30 | 5:51.50 | 236280 | 262654
21 | 58:22.05 | 1:51.20 | 262655 | 270999
22 | 60:13.25 | 4:36.72 | 271000 | 291771
23 | 64:50.22 | 2:42.48 | 291772 | 303969
24 | 67:32.70 | 3:29.45 | 303970 | 319689
25 | 71:02.40 | 2:42.30 | 319690 | 331869
26 | 73:44.70 | 1:58.22 | 331870 | 340741
27 | 75:43.17 | 1:19.33 | 340742 | 346699
28 | 77:02.50 | 1:13.27 | 346700 | 352201


Range status and errors

Selected range

Filename C:\Program Files\Exact Audio Copy\Flac\Vivaldi - Sacred Music Vol. 5.wav

Peak level 95.3 %
Extraction speed 8.3 X
Range quality 100.0 %
Test CRC 2ED070C2
Copy CRC 2ED070C2
Copy OK

No errors occurred

End of status report

==== Log checksum DAC4207731706A07B2F09F4DB911B850D70A698CB569CE5827D9E329BD6E8EF9 ====


Exact Audio Copy V1.3 from 2. September 2016

EAC extraction logfile from 12. February 2019, 13:34

Robert King, The King's Consort / Vivaldi - Sacred Music Vol. 6

Used drive : HL-DT-STDVDRAM GH24NS95 Adapter: 1 ID: 0

Read mode : Secure
Utilize accurate stream : Yes
Defeat audio cache : Yes
Make use of C2 pointers : No

Read offset correction : 6
Overread into Lead-In and Lead-Out : No
Fill up missing offset samples with silence : Yes
Delete leading and trailing silent blocks : No
Null samples used in CRC calculations : Yes
Used interface : Native Win32 interface for Win NT & 2000

Used output format : User Defined Encoder
Selected bitrate : 128 kBit/s
Quality : High
Add ID3 tag : No
Command line compressor : C:\Program Files\Exact Audio Copy\FLAC\FLAC.EXE
Additional command line options : -V -8 -T "Date=%year%" -T "Genre=%genre%" %source%


TOC of the extracted CD

Track | Start | Length | Start sector | End sector
––––––––––––––––––––––––––––-
1 | 0:00.00 | 2:11.45 | 0 | 9869
2 | 2:11.45 | 1:48.30 | 9870 | 17999
3 | 4:00.00 | 0:15.62 | 18000 | 19186
4 | 4:15.62 | 3:36.45 | 19187 | 35431
5 | 7:52.32 | 0:16.10 | 35432 | 36641
6 | 8:08.42 | 2:06.50 | 36642 | 46141
7 | 10:15.17 | 0:16.13 | 46142 | 47354
8 | 10:31.30 | 4:49.37 | 47355 | 69066
9 | 15:20.67 | 0:16.70 | 69067 | 70336
10 | 15:37.62 | 2:28.20 | 70337 | 81456
11 | 18:06.07 | 0:15.25 | 81457 | 82606
12 | 18:21.32 | 2:26.33 | 82607 | 93589
13 | 20:47.65 | 0:18.37 | 93590 | 94976
14 | 21:06.27 | 2:54.63 | 94977 | 108089
15 | 24:01.15 | 2:23.05 | 108090 | 118819
16 | 26:24.20 | 3:03.27 | 118820 | 132571
17 | 29:27.47 | 2:17.63 | 132572 | 142909
18 | 31:45.35 | 2:04.57 | 142910 | 152266
19 | 33:50.17 | 2:48.38 | 152267 | 164904
20 | 36:38.55 | 1:59.32 | 164905 | 173861
21 | 38:38.12 | 3:38.05 | 173862 | 190216
22 | 42:16.17 | 2:35.35 | 190217 | 201876
23 | 44:51.52 | 1:05.60 | 201877 | 206811
24 | 45:57.37 | 1:44.35 | 206812 | 214646
25 | 47:41.72 | 4:24.60 | 214647 | 234506
26 | 52:06.57 | 1:36.18 | 234507 | 241724
27 | 53:43.00 | 1:12.10 | 241725 | 247134
28 | 54:55.10 | 5:06.62 | 247135 | 270146
29 | 60:01.72 | 1:02.30 | 270147 | 274826
30 | 61:04.27 | 1:51.68 | 274827 | 283219


Range status and errors

Selected range

Filename C:\Program Files\Exact Audio Copy\Flac\Vivaldi - Sacred Music Vol. 6.wav

Peak level 96.6 %
Extraction speed 7.8 X
Range quality 100.0 %
Test CRC 116E5FB0
Copy CRC 116E5FB0
Copy OK

No errors occurred

End of status report

==== Log checksum 8E80439D0AF837D4553BEEFEFE86E291CC615A70C05923CCA3242997121D7665 ====


Exact Audio Copy V1.3 from 2. September 2016

EAC extraction logfile from 12. February 2019, 14:08

Robert King, The King's Consort / Vivaldi - Sacred Music Vol. 7

Used drive : HL-DT-STDVDRAM GH24NS95 Adapter: 1 ID: 0

Read mode : Secure
Utilize accurate stream : Yes
Defeat audio cache : Yes
Make use of C2 pointers : No

Read offset correction : 6
Overread into Lead-In and Lead-Out : No
Fill up missing offset samples with silence : Yes
Delete leading and trailing silent blocks : No
Null samples used in CRC calculations : Yes
Used interface : Native Win32 interface for Win NT & 2000

Used output format : User Defined Encoder
Selected bitrate : 128 kBit/s
Quality : High
Add ID3 tag : No
Command line compressor : C:\Program Files\Exact Audio Copy\FLAC\FLAC.EXE
Additional command line options : -V -8 -T "Date=%year%" -T "Genre=%genre%" %source%


TOC of the extracted CD

Track | Start | Length | Start sector | End sector
––––––––––––––––––––––––––––-
1 | 0:00.00 | 3:36.25 | 0 | 16224
2 | 3:36.25 | 3:03.40 | 16225 | 29989
3 | 6:39.65 | 2:31.65 | 29990 | 41379
4 | 9:11.55 | 3:32.20 | 41380 | 57299
5 | 12:44.00 | 2:48.20 | 57300 | 69919
6 | 15:32.20 | 2:15.40 | 69920 | 80084
7 | 17:47.60 | 1:49.05 | 80085 | 88264
8 | 19:36.65 | 4:29.37 | 88265 | 108476
9 | 24:06.27 | 0:51.48 | 108477 | 112349
10 | 24:58.00 | 2:21.35 | 112350 | 122959
11 | 27:19.35 | 3:59.70 | 122960 | 140954
12 | 31:19.30 | 0:38.72 | 140955 | 143876
13 | 31:58.27 | 2:14.60 | 143877 | 153986
14 | 34:13.12 | 1:28.65 | 153987 | 160651
15 | 35:42.02 | 4:40.38 | 160652 | 181689
16 | 40:22.40 | 0:33.22 | 181690 | 184186
17 | 40:55.62 | 3:40.35 | 184187 | 200721
18 | 44:36.22 | 6:00.48 | 200722 | 227769
19 | 50:36.70 | 2:37.65 | 227770 | 239609
20 | 53:14.60 | 0:59.40 | 239610 | 244074
21 | 54:14.25 | 1:46.27 | 244075 | 252051
22 | 56:00.52 | 1:12.38 | 252052 | 257489
23 | 57:13.15 | 2:24.40 | 257490 | 268329
24 | 59:37.55 | 1:30.02 | 268330 | 275081
25 | 61:07.57 | 3:00.15 | 275082 | 288596
26 | 64:07.72 | 1:33.35 | 288597 | 295606
27 | 65:41.32 | 3:24.55 | 295607 | 310961


Range status and errors

Selected range

Filename C:\Program Files\Exact Audio Copy\Flac\Vivaldi - Sacred Music Vol. 7.wav

Peak level 99.9 %
Extraction speed 8.0 X
Range quality 100.0 %
Test CRC FF0D5BA4
Copy CRC FF0D5BA4
Copy OK

No errors occurred

End of status report

==== Log checksum C41F3E7163707EB66CEC102637E9D857EC5DC2ACBF59E19DFB1A939458D8C1B0 ====


Exact Audio Copy V1.3 from 2. September 2016

EAC extraction logfile from 12. February 2019, 14:41

Robert King, The King's Consort / Vivaldi - Sacred Music Vol. 8

Used drive : HL-DT-STDVDRAM GH24NS95 Adapter: 1 ID: 0

Read mode : Secure
Utilize accurate stream : Yes
Defeat audio cache : Yes
Make use of C2 pointers : No

Read offset correction : 6
Overread into Lead-In and Lead-Out : No
Fill up missing offset samples with silence : Yes
Delete leading and trailing silent blocks : No
Null samples used in CRC calculations : Yes
Used interface : Native Win32 interface for Win NT & 2000

Used output format : User Defined Encoder
Selected bitrate : 128 kBit/s
Quality : High
Add ID3 tag : No
Command line compressor : C:\Program Files\Exact Audio Copy\FLAC\FLAC.EXE
Additional command line options : -V -8 -T "Date=%year%" -T "Genre=%genre%" %source%


TOC of the extracted CD

Track | Start | Length | Start sector | End sector
––––––––––––––––––––––––––––-
1 | 0:00.00 | 6:35.39 | 0 | 29663
2 | 6:35.39 | 0:55.18 | 29664 | 33806
3 | 7:30.57 | 5:54.34 | 33807 | 60390
4 | 13:25.16 | 3:09.48 | 60391 | 74613
5 | 16:34.64 | 1:58.15 | 74614 | 83478
6 | 18:33.04 | 3:28.14 | 83479 | 99092
7 | 22:01.18 | 1:59.11 | 99093 | 108028
8 | 24:00.29 | 2:48.43 | 108029 | 120671
9 | 26:48.72 | 2:25.12 | 120672 | 131558
10 | 29:14.09 | 1:38.20 | 131559 | 138928
11 | 30:52.29 | 1:48.61 | 138929 | 147089
12 | 32:41.15 | 3:39.73 | 147090 | 163587
13 | 36:21.13 | 1:35.72 | 163588 | 170784
14 | 37:57.10 | 1:52.16 | 170785 | 179200
15 | 39:49.26 | 3:29.19 | 179201 | 194894
16 | 43:18.45 | 1:47.13 | 194895 | 202932
17 | 45:05.58 | 4:21.11 | 202933 | 222518
18 | 49:26.69 | 2:18.58 | 222519 | 232926
19 | 51:45.52 | 3:47.62 | 232927 | 250013
20 | 55:33.39 | 1:23.36 | 250014 | 256274
21 | 56:57.00 | 4:49.06 | 256275 | 277955
22 | 61:46.06 | 1:25.56 | 277956 | 284386
23 | 63:11.62 | 2:06.03 | 284387 | 293839
24 | 65:17.65 | 3:06.38 | 293840 | 307827


Range status and errors

Selected range

Filename C:\Program Files\Exact Audio Copy\Flac\Vivaldi - Sacred Music Vol. 8.wav

Peak level 90.4 %
Extraction speed 8.0 X
Range quality 100.0 %
Test CRC 14A0DB6C
Copy CRC 14A0DB6C
Copy OK

No errors occurred

End of status report

==== Log checksum BF886E818EE0B7947673F94C21735B25DEFA3A357402B6A7FDCA05E1AB1A900F ====


Exact Audio Copy V1.3 from 2. September 2016

EAC extraction logfile from 12. February 2019, 15:15

Robert King, The King's Consort / Vivaldi - Sacred Music Vol. 9

Used drive : HL-DT-STDVDRAM GH24NS95 Adapter: 1 ID: 0

Read mode : Secure
Utilize accurate stream : Yes
Defeat audio cache : Yes
Make use of C2 pointers : No

Read offset correction : 6
Overread into Lead-In and Lead-Out : No
Fill up missing offset samples with silence : Yes
Delete leading and trailing silent blocks : No
Null samples used in CRC calculations : Yes
Used interface : Native Win32 interface for Win NT & 2000

Used output format : User Defined Encoder
Selected bitrate : 128 kBit/s
Quality : High
Add ID3 tag : No
Command line compressor : C:\Program Files\Exact Audio Copy\FLAC\FLAC.EXE
Additional command line options : -V -8 -T "Date=%year%" -T "Genre=%genre%" %source%


TOC of the extracted CD

Track | Start | Length | Start sector | End sector
––––––––––––––––––––––––––––-
1 | 0:00.00 | 2:16.22 | 0 | 10221
2 | 2:16.22 | 3:01.39 | 10222 | 23835
3 | 5:17.61 | 5:18.72 | 23836 | 47757
4 | 10:36.58 | 0:28.55 | 47758 | 49912
5 | 11:05.38 | 1:46.04 | 49913 | 57866
6 | 12:51.42 | 1:22.45 | 57867 | 64061
7 | 14:14.12 | 0:29.56 | 64062 | 66292
8 | 14:43.68 | 3:44.38 | 66293 | 83130
9 | 18:28.31 | 1:43.36 | 83131 | 90891
10 | 20:11.67 | 4:15.11 | 90892 | 110027
11 | 24:27.03 | 1:30.29 | 110028 | 116806
12 | 25:57.32 | 2:54.22 | 116807 | 129878
13 | 28:51.54 | 1:28.19 | 129879 | 136497
14 | 30:19.73 | 2:07.14 | 136498 | 146036
15 | 32:27.12 | 2:49.22 | 146037 | 158733
16 | 35:16.34 | 4:12.56 | 158734 | 177689
17 | 39:29.15 | 1:06.59 | 177690 | 182698
18 | 40:35.74 | 4:20.56 | 182699 | 202254
19 | 44:56.55 | 4:36.16 | 202255 | 222970
20 | 49:32.71 | 6:26.22 | 222971 | 251942
21 | 55:59.18 | 0:52.51 | 251943 | 255893
22 | 56:51.69 | 4:03.72 | 255894 | 274190
23 | 60:55.66 | 2:07.16 | 274191 | 283731
24 | 63:03.07 | 3:37.42 | 283732 | 300048


Range status and errors

Selected range

Filename C:\Program Files\Exact Audio Copy\Flac\Vivaldi - Sacred Music Vol. 9.wav

Peak level 97.7 %
Extraction speed 7.8 X
Range quality 100.0 %
Test CRC 979600DF
Copy CRC 979600DF
Copy OK

No errors occurred

End of status report

==== Log checksum 8ECE753C8A0397024AF558B48F81C8DB0F604705E23960895FA9623784860E8B ====


Exact Audio Copy V1.3 from 2. September 2016

EAC extraction logfile from 12. February 2019, 15:49

Robert King, The King's Consort / Vivaldi - Sacred Music Vol. 10

Used drive : HL-DT-STDVDRAM GH24NS95 Adapter: 1 ID: 0

Read mode : Secure
Utilize accurate stream : Yes
Defeat audio cache : Yes
Make use of C2 pointers : No

Read offset correction : 6
Overread into Lead-In and Lead-Out : No
Fill up missing offset samples with silence : Yes
Delete leading and trailing silent blocks : No
Null samples used in CRC calculations : Yes
Used interface : Native Win32 interface for Win NT & 2000

Used output format : User Defined Encoder
Selected bitrate : 128 kBit/s
Quality : High
Add ID3 tag : No
Command line compressor : C:\Program Files\Exact Audio Copy\FLAC\FLAC.EXE
Additional command line options : -V -8 -T "Date=%year%" -T "Genre=%genre%" %source%


TOC of the extracted CD

Track | Start | Length | Start sector | End sector
––––––––––––––––––––––––––––-
1 | 0:00.00 | 2:20.52 | 0 | 10551
2 | 2:20.52 | 5:46.09 | 10552 | 36510
3 | 8:06.61 | 2:15.35 | 36511 | 46670
4 | 10:22.21 | 0:26.13 | 46671 | 48633
5 | 10:48.34 | 0:56.20 | 48634 | 52853
6 | 11:44.54 | 3:58.52 | 52854 | 70755
7 | 15:43.31 | 2:10.35 | 70756 | 80540
8 | 17:53.66 | 4:08.50 | 80541 | 99190
9 | 22:02.41 | 1:04.66 | 99191 | 104056
10 | 23:07.32 | 2:18.58 | 104057 | 114464
11 | 25:26.15 | 0:47.28 | 114465 | 118017
12 | 26:13.43 | 3:10.20 | 118018 | 132287
13 | 29:23.63 | 1:28.33 | 132288 | 138920
14 | 30:52.21 | 2:31.70 | 138921 | 150315
15 | 33:24.16 | 2:24.04 | 150316 | 161119
16 | 35:48.20 | 3:13.51 | 161120 | 175645
17 | 39:01.71 | 2:24.63 | 175646 | 186508
18 | 41:26.59 | 4:43.01 | 186509 | 207734
19 | 46:09.60 | 3:47.31 | 207735 | 224790
20 | 49:57.16 | 1:26.35 | 224791 | 231275
21 | 51:23.51 | 2:51.12 | 231276 | 244112
22 | 54:14.63 | 1:01.51 | 244113 | 248738
23 | 55:16.39 | 3:32.10 | 248739 | 264648
24 | 58:48.49 | 0:50.31 | 264649 | 268429
25 | 59:39.05 | 1:45.29 | 268430 | 276333
26 | 61:24.34 | 1:15.58 | 276334 | 282016
27 | 62:40.17 | 0:45.57 | 282017 | 285448
28 | 63:25.74 | 2:36.34 | 285449 | 297182
29 | 66:02.33 | 1:51.61 | 297183 | 305568
30 | 67:54.19 | 1:07.64 | 305569 | 310657
31 | 69:02.08 | 1:30.44 | 310658 | 317451
32 | 70:32.52 | 1:36.17 | 317452 | 324668
33 | 72:08.69 | 1:10.37 | 324669 | 329955
34 | 73:19.31 | 3:15.49 | 329956 | 344629


Range status and errors

Selected range

Filename C:\Program Files\Exact Audio Copy\Flac\Vivaldi - Sacred Music Vol. 10.wav

Peak level 98.7 %
Extraction speed 8.3 X
Range quality 100.0 %
Test CRC A2784494
Copy CRC A2784494
Copy OK

No errors occurred

End of status report

==== Log checksum 3422B5197919C64DB6D40B9EAC33DA94B172939E1FBBEF489548EA41C21A2651 ====