Subcategories

Von Groove - The Seventh Day (2001)

Posted By: Andi_Deris
Von Groove - The Seventh Day (2001)

Von Groove - The Seventh Day (2001)
EAC Rip | FLAC: Image+Cue+Log | 334 Mb | MP3 CBR 320 kbps | 140 Mb | Scans | Time: 41:07
Genre: Melodic Hard Rock | Label: Z Records | Cat.: ZR 1997039

'The Seventh Day' is Von Groove's studio (seventh studio album) debut for new label Z Records. In sound it is very typical of Von Groove stylistically. There is no mistaking the bands great songwriting talent and this album is another gem in a long list of great albums. Tom Lewis replaces Matthew Gerrard on this album at bass guitar.



Von Groove - The Seventh Day (2001)


Track Listing

01. Believe In The One (04:09)
02. Lily (03:38)
03. Oxygen (03:29)
04. Seventh Day (05:13)
05. Lifeline (04:06)
06. Guns Over London (03:49)
07. The Best In Me (04:34)
08. Heaven Knows Your Name (04:02)
09. Soul Surgery (04:03)
10. Angel City (03:59)

Produced by Von Groove

The Band

• Mladen - all guitars
• Michael Shotton - drums, keys, percussion, silly noises and all vocals
• Tom Lewis - bass

Von Groove - The Seventh Day (2001)


Exact Audio Copy V0.99 prebeta 5 from 4. May 2009

Отчёт EAC об извлечении, выполненном 29. июня 2010, 18:12

Von Groove / The Seventh Day

Дисковод: PIONEER DVD-RW DVR-218L Adapter: 4 ID: 0

Режим чтения : Достоверность
Использование точного потока : Да
Отключение кэша аудио : Да
Использование указателей C2 : Нет

Коррекция смещения при чтении : 6
Способность читать области Lead-in и Lead-out : Нет
Заполнение пропущенных сэмплов тишиной : Да
Удаление блоков с тишиной в начале и конце : Нет
При вычислениях CRC использовались нулевые сэмплы : Да
Интерфейс : Установленный внешний ASPI-интерфейс

Выходной формат : Внутренние WAV-операции
Формат сэмплов : 44.100 Гц; 16 бит; стерео


TOC извлечённого CD

Трек | Старт | Длительность | Начальный сектор | Конечный сектор
––––––––––––––––––––––––––––––––––-
1 | 0:00.00 | 4:09.31 | 0 | 18705
2 | 4:09.31 | 3:38.50 | 18706 | 35105
3 | 7:48.06 | 3:29.52 | 35106 | 50832
4 | 11:17.58 | 5:13.56 | 50833 | 74363
5 | 16:31.39 | 4:06.24 | 74364 | 92837
6 | 20:37.63 | 3:49.14 | 92838 | 110026
7 | 24:27.02 | 4:34.23 | 110027 | 130599
8 | 29:01.25 | 4:02.36 | 130600 | 148785
9 | 33:03.61 | 4:03.45 | 148786 | 167055
10 | 37:07.31 | 3:59.70 | 167056 | 185050


Характеристики диапазона извлечения и сообщения об ошибках

Выбранный диапазон

Имя файла D:\Мои раздачи\Von Groove - The Seventh Day 2001\ape\Von Groove - The Seventh Day.wav

Пиковый уровень 100.0 %
Качество диапазона 100.0 %
CRC копии BE6B0A1C
Копирование… OK

Ошибок не произошло


AccurateRip: сводка

Трек 1 точное извлечение (доверие 2) [033E63DB]
Трек 2 точное извлечение (доверие 2) [BABF1428]
Трек 3 точное извлечение (доверие 2) [9EC3DCB2]
Трек 4 точное извлечение (доверие 2) [0363E273]
Трек 5 точное извлечение (доверие 2) [8DA157A4]
Трек 6 точное извлечение (доверие 2) [428B31BC]
Трек 7 точное извлечение (доверие 2) [F394E306]
Трек 8 точное извлечение (доверие 2) [23B7AA83]
Трек 9 точное извлечение (доверие 2) [70437D63]
Трек 10 точное извлечение (доверие 2) [0255D476]

Все треки извлечены точно

Конец отчёта


Many thanks to the original uploader: Manstr

SEE also:
Von Groove 1992 Von Groove [Japan 1st Press, 1993]
Von Groove 1997 Mission Man [Japan 1st Press]
Von Groove 1999 Test Of Faith [Japanese Ed.]
Von Groove 2000 Drivin Off The Edge Of The World
–––––––––
Nitroflare