Tags
Language
Tags

Zubin Mehta, Orquestra de la Comunitat Valenciana - Wagner: Gotterdammerung (2009) [Blu-Ray]

Posted By:
Zubin Mehta, Orquestra de la Comunitat Valenciana - Wagner: Gotterdammerung (2009) [Blu-Ray]

Zubin Mehta, Orquestra de la Comunitat Valenciana - Wagner: Götterdämmerung (2009) [Blu-Ray]
BluRay | BDMV | MPEG-4 AVC Video / 10985 kbps / 1080i / 29,970 fps | 280 min | 41,9 Gb
Audio1: Deutsch / LPCM Audio / 2.0 / 24-bit | Audio2: DTS-HD Master Audio / 5.1 / 48 kHz / 5457 kbps / 24-bit
––––––
BluRay-rip | AVC | MKV 1920x1080 / 6215 kbps / 29,97 fps | 280 min | 15,1 Gb
Audio: Deutsch / DTS / 6ch / 48.0 KHz / 24-bit
Classical | C Major | Sub: Deutsch, English, Francais, Espanol

La Fura del Baus, famous for their opening ceremony of the Olympic games in Barcelona and opera stagings in Salzburg, Ruhrtriennale, etc., use in their groundbreaking Ring 3D computer projections that evoke computer games, organic structures built of athletic performers that recall the "Cirque du soleil". “Ryan is a formidable stage-presence in both these music dramas…[He] can fine down the sound to spin a properly lyrical thread, and in his dying salutation to Brünnhilde rounds off a performance remarkable not just for its tireless stamina but for its musical and dramatic sensitivity.” (Gramophone).

Cast:
Siegfried – Lance Ryan
Gunther – Ralf Lukas
Alberich – Franz-Josef Kapellmann
Hagen – Matti Salminen
Brünnhilde – Jennifer Wilson
Gutrune – Elisabete Matos
Waltraute – Catherine Wyn-Rogers
1. Norn – Daniela Denschlag
2. Norn – Pilar Vázquez
3. Norn – Eugenia Bethencourt
Woglinde - Silvia Vázquez
Wellgunde – Ann-Katrin Naidu
Floßhilde – Marina Prudenskaya
Orquestra de la Comunitat Valenciana
Conductor - Zubin Mehta


Disc Title: GOTTERDAMMERUNG
Disc Size: 45 042 612 196 bytes
Protection: AACS
BD-Java: No
Playlist: 00001.MPLS
Size: 42 129 346 560 bytes
Length: 4:40:55.338
Total Bitrate: 20,00 Mbps
Video: MPEG-4 AVC Video / 10985 kbps / 1080i / 29,970 fps / 16:9 / High Profile 4.1
Audio: German / LPCM Audio / 2.0 / 48 kHz / 2304 kbps / 24-bit
Audio: German / DTS-HD Master Audio / 7.1 / 48 kHz / 5457 kbps / 24-bit (DTS Core: 5.1 / 48 kHz / 1509 kbps / 24-bit)
Subtitle: German / 14,790 kbps
Subtitle: English / 15,562 kbps
Subtitle: French / 15,018 kbps
Subtitle: Spanish / 16,044 kbps


General
Unique ID : 196536484988463374969983865782711028497 (0x93DB8CD74FB010118D6092B5DB6B0B11)
Complete name : C:\Gotterdammerung.mkv
Format : Matroska
Format version : Version 2
File size : 15.2 GiB
Duration : 4h 40mn
Overall bit rate : 7 743 Kbps
Movie name : Gotterdammerung
Encoded date : UTC 2020-02-06 11:39:37
Writing application : DVDFab 9.1.6.8
Writing library : libebml v0.7.8 + libmatroska v0.8.1

Video
ID : 1
Format : AVC
Format/Info : Advanced Video Codec
Format profile : High@L4.1
Format settings, CABAC : Yes
Format settings, ReFrames : 2 frames
Format settings, GOP : M=3, N=24
Codec ID : V_MPEG4/ISO/AVC
Duration : 4h 40mn
Bit rate : 6 215 Kbps
Width : 1 920 pixels
Height : 1 080 pixels
Display aspect ratio : 16:9
Frame rate mode : Constant
Frame rate : 29.970 fps
Color space : YUV
Chroma subsampling : 4:2:0
Bit depth : 8 bits
Scan type : Progressive
Bits/(Pixel*Frame) : 0.100
Stream size : 11.9 GiB (79%)
Writing library : x264 core 142
Encoding settings : cabac=1 / ref=1 / deblock=1:-1:-1 / analyse=0x3:0 / me=hex / subme=5 / psy=0 / mixed_ref=0 / me_range=16 / chroma_me=1 / trellis=0 / 8x8dct=1 / cqm=0 / deadzone=21,11 / fast_pskip=1 / chroma_qp_offset=0 / threads=8 / lookahead_threads=2 / sliced_threads=0 / nr=0 / decimate=1 / interlaced=0 / bluray_compat=0 / constrained_intra=0 / bframes=2 / b_pyramid=0 / b_adapt=1 / b_bias=0 / direct=1 / weightb=1 / open_gop=0 / weightp=0 / keyint=24 / keyint_min=13 / scenecut=40 / intra_refresh=0 / rc=abr / mbtree=0 / bitrate=6215 / ratetol=1.0 / qcomp=0.60 / qpmin=0 / qpmax=69 / qpstep=4 / ip_ratio=1.40 / pb_ratio=1.30 / aq=1:1.00
Default : Yes
Forced : No
Color primaries : BT.709
Transfer characteristics : BT.709
Matrix coefficients : BT.709
Color range : Limited

Audio
ID : 2
Format : DTS
Format/Info : Digital Theater Systems
Mode : 16
Format settings, Endianness : Big
Codec ID : A_DTS
Duration : 4h 40mn
Bit rate mode : Constant
Bit rate : 1 509 Kbps
Channel(s) : 6 channels
Channel positions : Front: L C R, Side: L R, LFE
Sampling rate : 48.0 KHz
Bit depth : 24 bits
Compression mode : Lossy
Stream size : 2.96 GiB (19%)
Language : German
Default : Yes
Forced : No

Text #1
ID : 3
Format : VobSub
Codec ID : S_VOBSUB
Codec ID/Info : The same subtitle format used on DVDs
Language : German
Default : Yes
Forced : No

Text #2
ID : 4
Format : VobSub
Codec ID : S_VOBSUB
Codec ID/Info : The same subtitle format used on DVDs
Language : English
Default : No
Forced : No

Text #3
ID : 5
Format : VobSub
Codec ID : S_VOBSUB
Codec ID/Info : The same subtitle format used on DVDs
Language : French
Default : No
Forced : No

Text #4
ID : 6
Format : VobSub
Codec ID : S_VOBSUB
Codec ID/Info : The same subtitle format used on DVDs
Language : Spanish
Default : No
Forced : No

Menu
00:00:00.000 : en:Chapter 01
00:02:13.433 : en:Chapter 02
00:04:20.393 : en:Chapter 03
00:13:32.745 : en:Chapter 04
00:19:07.679 : en:Chapter 05
00:22:42.794 : en:Chapter 06
00:28:09.854 : en:Chapter 07
00:34:59.397 : en:Chapter 08
00:40:42.306 : en:Chapter 09
00:46:34.024 : en:Chapter 10
00:51:14.504 : en:Chapter 11
00:53:03.947 : en:Chapter 12
00:56:13.536 : en:Chapter 13
00:59:57.961 : en:Chapter 14
01:07:16.132 : en:Chapter 15
01:13:50.025 : en:Chapter 16
01:24:21.956 : en:Chapter 17
01:32:06.053 : en:Chapter 18
01:43:13.954 : en:Chapter 19
01:50:19.813 : en:Chapter 20
01:53:12.652 : en:Chapter 21
01:59:06.806 : en:Chapter 22
02:02:01.314 : en:Chapter 23
02:05:45.771 : en:Chapter 24
02:09:39.138 : en:Chapter 25
02:16:46.364 : en:Chapter 26
02:22:25.270 : en:Chapter 27
02:31:06.724 : en:Chapter 28
02:35:27.451 : en:Chapter 29
02:41:27.110 : en:Chapter 30
02:47:32.942 : en:Chapter 31
02:54:33.963 : en:Chapter 32
03:03:21.924 : en:Chapter 33
03:10:52.474 : en:Chapter 34
03:14:21.583 : en:Chapter 35
03:18:17.585 : en:Chapter 36
03:23:55.223 : en:Chapter 37
03:32:03.510 : en:Chapter 38
03:39:23.550 : en:Chapter 39
03:44:16.709 : en:Chapter 40
03:49:16.776 : en:Chapter 41
03:53:00.032 : en:Chapter 42
04:00:22.708 : en:Chapter 43
04:08:04.169 : en:Chapter 44
04:11:21.699 : en:Chapter 45
04:20:02.386 : en:Chapter 46
04:23:58.856 : en:Chapter 47
04:30:57.074 : en:Chapter 48
04:38:11.641 : en:Chapter 49

All screenshots taken from BDRip

Zubin Mehta, Orquestra de la Comunitat Valenciana - Wagner: Gotterdammerung (2009) [Blu-Ray]