Subcategories

Mieczyslaw Weinberg - Weinberg Edition, Vol. 1 (Fedoseyev, Korsten)

Posted By: tapaz9
Mieczyslaw Weinberg - Weinberg Edition, Vol. 1 (Fedoseyev, Korsten)

Mieczyslaw Weinberg - Weinberg Edition, Vol. 1 (Fedoseyev, Korsten)
Classical | EAC: FLAC+Cue+Log | 1 Cd, Covers + Booklet | 367 Mb
Label: Neos - Date: 2011

The earnest idiom of the Weinberg's sixth symphony for for boys’ choir and orchestra may have been influenced not only by the Second World War, but also by the persecution of the Jews and Weinberg’s own imprisonment under Stalin. On 12 November 1963 the work was given its première in Moscow, with Kyrill Kondrashin conducting the Moscow Philharmonic and the boys’ choir of the Moscow Choral School. Here the symphony is presented together with his Sinfonietta No. 1 from 1948 in a live recording made during the Bregenz Festival 2010
Tracks:

01. Symphony No. 6, Op. 79 - I. Adagio sostenuto [0:12:21.03]
02. II. Allegretto [0:07:24.05]
03. III. Allegro molto [0:07:14.19]
04. IV. Largo [0:07:02.39]
05. V. Andantino [0:10:09.06]
06. Sinfonietta No. 1, Op. 41 - I. Allegro risoluto [0:04:59.35]
07. II. Lento [0:08:07.54]
08. III. Allegretto [0:03:24.56]
09. IV. Vivace [0:06:14.22]


Exact Audio Copy V1.0 beta 3 from 29. August 2011

EAC extraction logfile from 8. January 2013, 23:43

Mieczyslaw Weinberg / Weinberg Edition, Vol. 1 (Fedoseyev, Korsten)

Used drive : TSSTcorpCDDVDW SH-S223C Adapter: 2 ID: 1

Read mode : Secure
Utilize accurate stream : Yes
Defeat audio cache : Yes
Make use of C2 pointers : No

Read offset correction : 697
Overread into Lead-In and Lead-Out : No
Fill up missing offset samples with silence : Yes
Delete leading and trailing silent blocks : No
Null samples used in CRC calculations : Yes
Used interface : Native Win32 interface for Win NT & 2000

Used output format : User Defined Encoder
Selected bitrate : 896 kBit/s
Quality : High
Add ID3 tag : No
Command line compressor : C:\Program Files (x86)\Exact Audio Copy\FLAC\FLAC.EXE
Additional command line options : -V -0 -T "COMMENT=Ripped by Tapaz9" -T "artist=%artist%" -T "title=%title%" -T "album=%albumtitle%" -T "date=%year%" -T "tracknumber=%tracknr%" -T "genre=%genre%" %source%


TOC of the extracted CD

Track | Start | Length | Start sector | End sector
––––––––––––––––––––––––––––-
1 | 0:00.00 | 12:21.03 | 0 | 55577
2 | 12:21.03 | 7:24.05 | 55578 | 88882
3 | 19:45.08 | 7:14.19 | 88883 | 121451
4 | 26:59.27 | 7:02.39 | 121452 | 153140
5 | 34:01.66 | 10:09.06 | 153141 | 198821
6 | 44:10.72 | 4:59.35 | 198822 | 221281
7 | 49:10.32 | 8:07.54 | 221282 | 257860
8 | 57:18.11 | 3:24.56 | 257861 | 273216
9 | 60:42.67 | 6:14.22 | 273217 | 301288


Range status and errors

Selected range

Filename F:\Musique\Weinberg, Mieczyslaw\Weinberg_WeinbergEditionVol1\Mieczyslaw Weinberg - Weinberg Edition, Vol. 1 (Fedoseyev, Korsten).wav

Peak level 95.0 %
Extraction speed 14.5 X
Range quality 100.0 %
Copy CRC EB18CF3D
Copy OK

No errors occurred

End of status report

==== Log checksum 49FB4DDB2665A31A48C0E134B3A1C76BC4FFF44D8B60A80A0918F3FBDED9E80C ====

No Mirrors and Torrent-uploads Please

See my classical digital download posts in the Vinyl & HR section or check out My Avax blog