Tags
Language
Tags

Declan McKenna - What Do You Think About the Car? (2017)

Posted By: SERTiL
Declan McKenna - What Do You Think About the Car? (2017)

Declan McKenna - What Do You Think About the Car?
EAC Rip | FLAC (tracks)+cue, log, m3u, front cover | 47:29 min | 318 MB
Label: Columbia ‎– 889853957224 | Tracks: 11 | Rls.date: 2017
Indie Pop, Alternative, Singer-Songwriter

Breaking through aged 15 with a song, “Brazil”, that rails against corruption in international football, Declan McKenna revealed himself as a unique, thoughtful lyricist with a knack for scruffy guitar pop galvanised by classic hooks. His debut album confirms that reputation, investigating police brutality and media bias on the baroque indie rock of “Isombard” and highlighting irresponsible reporting of LGBT issues on “Paracetamol”’s charmingly wonky electro-pop. Best of all is “The Kids Don’t Wanna Come Home”, which throbs with all the confusion and optimism of youth.

British indie singer/songwriter Declan McKenna first emerged in 2015 with the shimmering, politically charged single "Brazil," which directly addressed the corruption scandal then engulfing soccer's governing body, FIFA. The teenaged Hertfordshire native had only a handful of self-released tracks to his name, having uploaded them to his Bandcamp page. Obsessed with Bowie and with an attitude recalling the Libertines and Jamie T., McKenna blended bright indie pop with textural lo-fi. As "Brazil" gained traction throughout 2015, McKenna's star began to rise, and that summer he took home the Glastonbury Festival's coveted Emerging Talent prize. Hyperbolically dubbed "the voice of a generation," he signed a management contract with industry giant Q-Prime, leading to a bidding war which resulted in his signing to Columbia. His follow-up single, "Paracetamol," arrived in November 2015, proving that he was no one-hit wonder. The EPs Stains and Liar followed in 2016, along with a string of socially conscious singles tackling such weighty topics as police brutality, religion, and terrorism. All six of his previously released singles eventually wound up on his bright, eclectic debut album, What Do You Think About the Car?, produced by Simian Mobile Disco's James Ford and released in summer 2017. ~ Timothy Monger & John D. Buchanan

TRACKLIST
1. Humongous (05:21)
2. Brazil (04:12)
3. The Kids Don't Wanna Come Home (05:16)
4. Mind (04:20)
5. Make Me Your Queen (03:41)
6. Isombard (03:43)
7. I Am Everyone Else (03:55)
8. Bethlehem (03:45)
9. Why Do You Feel So Down (03:40)
10. Paracetamol (05:18)
11. Listen to Your Friends (04:18)

Exact Audio Copy V1.3 from 2. September 2016

EAC extraction logfile from 24. July 2017, 16:07

Declan McKenna / What Do You Think About the Car?

Used drive : PLEXTOR PX-891SAF Adapter: 1 ID: 0

Read mode : Secure
Utilize accurate stream : Yes
Defeat audio cache : Yes
Make use of C2 pointers : No

Read offset correction : 6
Overread into Lead-In and Lead-Out : No
Fill up missing offset samples with silence : Yes
Delete leading and trailing silent blocks : No
Null samples used in CRC calculations : Yes
Used interface : Native Win32 interface for Win NT & 2000
Gap handling : Appended to previous track

Used output format : User Defined Encoder
Selected bitrate : 1024 kBit/s
Quality : High
Add ID3 tag : No
Command line compressor : C:\Program Files (x86)\Exact Audio Copy\FLAC\FLAC.EXE
Additional command line options : -8 -e -p -V -T "ARTIST=%artist%" -T "TITLE=%title%" -T "ALBUM=%albumtitle%" -T "DATE=%year%" -T "TRACKNUMBER=%tracknr%" -T "GENRE=%genre%" -T "PERFORMER=%albuminterpret%" -T "COMPOSER=%composer%" %haslyrics%–tag-from-file=LYRICS="%lyricsfile%"%haslyrics% -T "ALBUMARTIST=%albumartist%" -T "DISCNUMBER=%cdnumber%" -T "TOTALDISCS=%totalcds%" -T "TOTALTRACKS=%numtracks%" -T "COMMENT=%comment%" %source% -o %dest%


TOC of the extracted CD

Track | Start | Length | Start sector | End sector
––––––––––––––––––––––––––––-
1 | 0:00.00 | 5:21.51 | 0 | 24125
2 | 5:21.51 | 4:12.23 | 24126 | 43048
3 | 9:33.74 | 5:16.61 | 43049 | 66809
4 | 14:50.60 | 4:20.20 | 66810 | 86329
5 | 19:11.05 | 3:41.27 | 86330 | 102931
6 | 22:52.32 | 3:43.64 | 102932 | 119720
7 | 26:36.21 | 3:55.50 | 119721 | 137395
8 | 30:31.71 | 3:45.72 | 137396 | 154342
9 | 34:17.68 | 3:40.53 | 154343 | 170895
10 | 37:58.46 | 5:18.28 | 170896 | 194773
11 | 43:16.74 | 4:18.70 | 194774 | 214193


Track 1

Filename D:\RED\0_RIP\Declan McKenna - What Do You Think About the Car (2017) [CD 889853957224] [FLAC]\01 - Humongous.wav

Pre-gap length 0:00:02.00

Peak level 100.0 %
Extraction speed 4.6 X
Track quality 99.9 %
Test CRC 1AD1987A
Copy CRC 1AD1987A
Track not present in AccurateRip database
Copy OK

Track 2

Filename D:\RED\0_RIP\Declan McKenna - What Do You Think About the Car (2017) [CD 889853957224] [FLAC]\02 - Brazil.wav

Peak level 100.0 %
Extraction speed 4.9 X
Track quality 99.9 %
Test CRC 4BB04CF8
Copy CRC 4BB04CF8
Track not present in AccurateRip database
Copy OK

Track 3

Filename D:\RED\0_RIP\Declan McKenna - What Do You Think About the Car (2017) [CD 889853957224] [FLAC]\03 - The Kids Don't Wanna Come Home.wav

Peak level 99.6 %
Extraction speed 6.6 X
Track quality 100.0 %
Test CRC C1958A1D
Copy CRC C1958A1D
Track not present in AccurateRip database
Copy OK

Track 4

Filename D:\RED\0_RIP\Declan McKenna - What Do You Think About the Car (2017) [CD 889853957224] [FLAC]\04 - Mind.wav

Peak level 100.0 %
Extraction speed 5.8 X
Track quality 99.9 %
Test CRC 27B50FAB
Copy CRC 27B50FAB
Track not present in AccurateRip database
Copy OK

Track 5

Filename D:\RED\0_RIP\Declan McKenna - What Do You Think About the Car (2017) [CD 889853957224] [FLAC]\05 - Make Me Your Queen.wav

Peak level 100.0 %
Extraction speed 7.1 X
Track quality 100.0 %
Test CRC 576D56FE
Copy CRC 576D56FE
Track not present in AccurateRip database
Copy OK

Track 6

Filename D:\RED\0_RIP\Declan McKenna - What Do You Think About the Car (2017) [CD 889853957224] [FLAC]\06 - Isombard.wav

Peak level 100.0 %
Extraction speed 7.5 X
Track quality 100.0 %
Test CRC 0BD50D5F
Copy CRC 0BD50D5F
Track not present in AccurateRip database
Copy OK

Track 7

Filename D:\RED\0_RIP\Declan McKenna - What Do You Think About the Car (2017) [CD 889853957224] [FLAC]\07 - I Am Everyone Else.wav

Peak level 100.0 %
Extraction speed 7.8 X
Track quality 100.0 %
Test CRC 2DC71F30
Copy CRC 2DC71F30
Track not present in AccurateRip database
Copy OK

Track 8

Filename D:\RED\0_RIP\Declan McKenna - What Do You Think About the Car (2017) [CD 889853957224] [FLAC]\08 - Bethlehem.wav

Peak level 100.0 %
Extraction speed 8.1 X
Track quality 100.0 %
Test CRC F905A3D0
Copy CRC F905A3D0
Track not present in AccurateRip database
Copy OK

Track 9

Filename D:\RED\0_RIP\Declan McKenna - What Do You Think About the Car (2017) [CD 889853957224] [FLAC]\09 - Why Do You Feel So Down.wav

Peak level 100.0 %
Extraction speed 8.3 X
Track quality 100.0 %
Test CRC DAA332DD
Copy CRC DAA332DD
Track not present in AccurateRip database
Copy OK

Track 10

Filename D:\RED\0_RIP\Declan McKenna - What Do You Think About the Car (2017) [CD 889853957224] [FLAC]\10 - Paracetamol.wav

Peak level 100.0 %
Extraction speed 7.8 X
Track quality 99.9 %
Test CRC 76D305CE
Copy CRC 76D305CE
Track not present in AccurateRip database
Copy OK

Track 11

Filename D:\RED\0_RIP\Declan McKenna - What Do You Think About the Car (2017) [CD 889853957224] [FLAC]\11 - Listen to Your Friends.wav

Peak level 100.0 %
Extraction speed 9.2 X
Track quality 100.0 %
Test CRC 8241228F
Copy CRC 8241228F
Track not present in AccurateRip database
Copy OK


None of the tracks are present in the AccurateRip database

No errors occurred

End of status report

–– CUETools DB Plugin V2.1.6

[CTDB TOCID: 5QeibB7R3F5M4ZMXp_S96tfqaNk-] found
Submit result: 5QeibB7R3F5M4ZMXp_S96tfqaNk- has been confirmed
Track | CTDB Status
1 | (2/2) Accurately ripped
2 | (2/2) Accurately ripped
3 | (2/2) Accurately ripped
4 | (2/2) Accurately ripped
5 | (2/2) Accurately ripped
6 | (2/2) Accurately ripped
7 | (2/2) Accurately ripped
8 | (2/2) Accurately ripped
9 | (2/2) Accurately ripped
10 | (2/2) Accurately ripped
11 | (2/2) Accurately ripped


==== Log checksum F0EC9E6226014BA7B6B054466571DC41112EB9C62139400598415F36583FB221 ====


Thanks to the Original customer.