Subcategories

VA - Where the Action Is! Los Angeles Nuggets 1965–1968 (2009)

Posted By: mook45
VA - Where the Action Is! Los Angeles Nuggets 1965–1968 (2009)

VA - Where the Action Is! Los Angeles Nuggets 1965–1968 (2009)
EAC | FLAC IMG,CUE+LOG = 1.39GB | MP3@320 = 640MB | 400 dpi Scans
Garage Rock/Pysch | Label: Rhino - 8122-79858-6 | FSo/FSe


This completes the Nuggets series on Avax.

Track listing
Disc one: "On the Strip"

1. "Riot on Sunset Strip" – The Standells
2. "You Movin'" – The Byrds
3. "You I'll Be Following" – Love
4. "Dr. Stone" – The Leaves
5. "Go and Say Goodbye" – Buffalo Springfield
6. "Zig Zag Wanderer" – Captain Beefheart & His Magic Band
7. "Gentle as It May Seem" – Iron Butterfly
8. "Candy Cane Madness" – Lowell George & The Factory
9. "If You Want This Love" – The West Coast Pop Art Experimental Band
10. "Baby My Heart" – The Bobby Fuller Four
11. "All Night Long" – The Palace Guard
12. "It's Gonna Rain" – Sonny & Cher
13. "For My Own" – The Guilloteens
14. "Take a Giant Step" – The Rising Sons
15. "One Too Many Mornings" – The Association
16. "Time Waits for No One" – The Knack
17. "Take It as It Comes" – The Doors
18. "Pulsating Dream" – Kaleidoscope
19. "Tripmaker" – The Seeds
20. "The People in Me" – The Music Machine
21. "Saturday's Son" – Sons of Adam
22. "Eventually" – The Peanut Butter Conspiracy
23. "Swim" – Penny Arkade
24. "The Third Eye" – The Joint Effort
25. "Girl in Your Eye" – Spirit

Disc two: "Beyond the City"

1. "Jump, Jive & Harmonize" – Thee Midniters
2. "Back Up" – The Light
3. "To Die Alone" – The Bush
4. "Get on This Plane" – The Premiers
5. "Little Girl, Little Boy" – The Odyssey
6. "Hideaway" – The Electric Prunes
7. "Listen, Listen!" – The Merry-Go-Round
8. "She Done Moved" – The Spats
9. "Grim Reaper of Love" – The Turtles
10. "See if I Care" – Ken & The Fourth Dimension
11. "He's Not There Anymore" – The Chymes
12. "Back Seat ‘38 Dodge" – Opus 1
13. "Eternal Prison" – The Humane Society
14. "Revenge" – The Others
15. "Come Alive" – Things to Come
16. "Acid Head" – The Velvet Illusions
17. "Guaranteed Love" – Limey & the Yanks
18. "Love's the Thing" – The Romancers (aka The Smoke Rings)
19. "Underground Lady" – Kim Fowley
20. "Pretty Little Thing" – The Deepest Blue
21. "You're Wishin' I Was Someone Else" – The Whatt Four
22. "Hippy Elevator Operator" – The W.C. Fields Memorial Electric String Band
23. "That's for Sure" – The Mustangs
24. "Tomorrow's Girl" – Fapardokly (Merrell & the Exiles)
25. "Everything's There" – The Hysterics
26. "Our Time Is Running Out" – The Yellow Payges

Disc three: "The Studio Scene"

1. "Action, Action, Action" – Keith Allison
2. "The Rebel Kind" – Dino, Desi & Billy
3. "High on Love" – The Knickerbockers
4. "Fan Tan" – Jan & Dean
5. "Halloween Mary" – P. F. Sloan
6. "Somebody Groovy" – The Mamas & the Papas
7. "Daydreaming" – Thorinshield
8. "Just Can't Wait" – The Full Treatment
9. "Yellow Balloon" – The Yellow Balloon
10. "The Times to Come" – London Phogg
11. "No More Running Around" – The Lamp of Childhood
12. "Little Girl Lost-and-Found" – The Garden Club
13. "Mothers and Fathers" – The Moon
14. "My Girlfriend Is a Witch" – October Country
15. "Montage Mirror" – Roger Nichols Trio
16. "Flower Eyes" – Pasternak Progress
17. "Come Down" – The Common Cold
18. "Jill" – Gary Lewis & the Playboys
19. "Daily Nightly" – The Monkees
20. "Night Time Girl" – Modern Folk Quintet
21. "Don't Say No" – The Oracle
22. "Tin Angel (Will You Ever Come Down)" – Hearts and Flowers
23. "Rainbow Woman" – Lee Hazlewood
24. "Poor Old Organ Grinder" – Pleasure featuring Billy Elder
25. "Baby, Please Don't Go" – The Ballroom

Disc four: "New Directions"

1. "Sit Down I Think I Love You" – Stephen Stills and Richie Furay
2. "Splendor in the Grass" – Jackie DeShannon with The Byrds
3. "November Night" – Peter Fonda
4. "Roses and Rainbows" – Danny Hutton
5. "Lemon Chimes" – The Dillards
6. "Here's Today" – The Rose Garden
7. "I Love How You Love Me" – Nino Tempo & April Stevens
8. "Words" (demo) – Boyce and Hart
9. "(You Used To) Ride So High" – The Motorcycle Abeline (Warren Zevon & Bones Howe)
10. "Los Angeles" – Gene Clark
11. "Once Upon a Time" – Tim Buckley
12. "Darlin' You Can Count On Me" – The Everpresent Fullness
13. "I'll Search the Sky" – The Nitty Gritty Dirt Band
14. "Come to the Sunshine" – Van Dyke Parks
15. "Heroes and Villains" (alternate take) – The Beach Boys
16. "She Sang Hymns Out of Tune" – Jesse Lee Kincaid
17. "Sister Marie" – Nilsson
18. "Last Night I Had a Dream" – Randy Newman
19. "Life Is a Dream" – Noel Harrison
20. "Marshmallow Skies" – Rick Nelson
21. "I Think I Love You" – Del Shannon
22. "Change Is Now" – The Byrds
23. "The Truth Is Not Real" – Sagittarius
24. "You Set the Scene" – Love
25. "Inner-Manipulations" – Barry McGuire

Exact Audio Copy V0.99 prebeta 5 from 4. May 2009

EAC extraction logfile from 14. December 2009, 21:34

Various / Where the Action Is! Los Angeles Nuggets 1965-1968 - Disc 1 of 4

Used drive : HP DVD Writer 1040r Adapter: 1 ID: 0

Read mode : Secure
Utilize accurate stream : Yes
Defeat audio cache : Yes
Make use of C2 pointers : No

Read offset correction : 6
Overread into Lead-In and Lead-Out : No
Fill up missing offset samples with silence : Yes
Delete leading and trailing silent blocks : No
Null samples used in CRC calculations : Yes
Used interface : Native Win32 interface for Win NT & 2000

Used output format : User Defined Encoder
Selected bitrate : 1024 kBit/s
Quality : High
Add ID3 tag : No
Command line compressor : C:\Program Files\Exact Audio Copy\FLAC\FLAC.EXE
Additional command line options : -5 -V -T "ARTIST=%a" -T "TITLE=%t" -T "ALBUM=%g" -T "DATE=%y" -T "TRACKNUMBER=%n" -T "GENRE=%m" -T "COMMENT=EAC Flac 1.1.2 -5" %s


TOC of the extracted CD

Track | Start | Length | Start sector | End sector
––––––––––––––––––––––––––––-
1 | 0:00.00 | 2:20.73 | 0 | 10572
2 | 2:20.73 | 2:06.00 | 10573 | 20022
3 | 4:26.73 | 2:23.59 | 20023 | 30806
4 | 6:50.57 | 2:19.12 | 30807 | 41243
5 | 9:09.69 | 2:18.55 | 41244 | 51648
6 | 11:28.49 | 2:32.45 | 51649 | 63093
7 | 14:01.19 | 2:25.02 | 63094 | 73970
8 | 16:26.21 | 2:11.14 | 73971 | 83809
9 | 18:37.35 | 2:49.47 | 83810 | 96531
10 | 21:27.07 | 2:15.39 | 96532 | 106695
11 | 23:42.46 | 2:56.42 | 106696 | 119937
12 | 26:39.13 | 2:36.02 | 119938 | 131639
13 | 29:15.15 | 2:08.29 | 131640 | 141268
14 | 31:23.44 | 2:54.70 | 141269 | 154388
15 | 34:18.39 | 2:51.61 | 154389 | 167274
16 | 37:10.25 | 2:09.11 | 167275 | 176960
17 | 39:19.36 | 2:14.56 | 176961 | 187066
18 | 41:34.17 | 1:51.73 | 187067 | 195464
19 | 43:26.15 | 2:44.74 | 195465 | 207838
20 | 46:11.14 | 2:51.55 | 207839 | 220718
21 | 49:02.69 | 2:09.50 | 220719 | 230443
22 | 51:12.44 | 1:53.08 | 230444 | 238926
23 | 53:05.52 | 2:43.63 | 238927 | 251214
24 | 55:49.40 | 2:12.25 | 251215 | 261139
25 | 58:01.65 | 3:08.31 | 261140 | 275270


Range status and errors

Selected range

Filename C:\Users\Mike3\Desktop\Nuggets\Where the Action Is! Los Angeles Nuggets 1968-1969 (Flac)\Disc 1 - On the Strip\Various - Where the Action Is! Los Angeles Nuggets 1965-1968 - Disc 1 of 4.wav

Peak level 100.0 %
Range quality 99.9 %
Copy CRC 0763D055
Copy OK

No errors occurred


AccurateRip summary

Track 1 cannot be verified as accurate (confidence 3) [CC543088], AccurateRip returned [3C681F09]
Track 2 cannot be verified as accurate (confidence 3) [F05F8C91], AccurateRip returned [65A660B6]
Track 3 cannot be verified as accurate (confidence 3) [52FC1DED], AccurateRip returned [66329223]
Track 4 cannot be verified as accurate (confidence 3) [ACB50077], AccurateRip returned [FD28C0D5]
Track 5 cannot be verified as accurate (confidence 3) [AEBA79E2], AccurateRip returned [7FD72CF5]
Track 6 cannot be verified as accurate (confidence 3) [14D5F70A], AccurateRip returned [29CA750E]
Track 7 cannot be verified as accurate (confidence 3) [DB384175], AccurateRip returned [BA7BD175]
Track 8 cannot be verified as accurate (confidence 3) [15606790], AccurateRip returned [FB513E74]
Track 9 cannot be verified as accurate (confidence 3) [7CEC648A], AccurateRip returned [11977268]
Track 10 cannot be verified as accurate (confidence 3) [95F64843], AccurateRip returned [CA587495]
Track 11 cannot be verified as accurate (confidence 3) [D6E679A4], AccurateRip returned [37F38A5A]
Track 12 cannot be verified as accurate (confidence 3) [A83416E1], AccurateRip returned [D44FE7B3]
Track 13 cannot be verified as accurate (confidence 3) [4385111F], AccurateRip returned [361750D2]
Track 14 cannot be verified as accurate (confidence 3) [5D3D454B], AccurateRip returned [4BC38EA5]
Track 15 cannot be verified as accurate (confidence 2) [BFD2DF3C], AccurateRip returned [C324D8A8]
Track 16 cannot be verified as accurate (confidence 2) [DB568B93], AccurateRip returned [E0905D5C]
Track 17 cannot be verified as accurate (confidence 3) [69B7693C], AccurateRip returned [3AC258AF]
Track 18 cannot be verified as accurate (confidence 2) [30ADD776], AccurateRip returned [4CBBA6A8]
Track 19 cannot be verified as accurate (confidence 3) [98451674], AccurateRip returned [D0239D80]
Track 20 cannot be verified as accurate (confidence 3) [66302E6C], AccurateRip returned [87DA2590]
Track 21 cannot be verified as accurate (confidence 3) [8D025AB5], AccurateRip returned [977D8413]
Track 22 cannot be verified as accurate (confidence 3) [E2683D5A], AccurateRip returned [E8DF21E6]
Track 23 cannot be verified as accurate (confidence 3) [E7463666], AccurateRip returned [AF4EE222]
Track 24 cannot be verified as accurate (confidence 3) [170C33C9], AccurateRip returned [49A088D6]
Track 25 not present in database

24 track(s) could not be verified as accurate
1 track(s) not present in the AccurateRip database

No tracks could be verified as accurate
You may have a different pressing from the one(s) in the database

End of status report


Exact Audio Copy V0.99 prebeta 5 from 4. May 2009

EAC extraction logfile from 14. December 2009, 22:22

Various Artists / Where the Action Is! Los Angeles Nuggets 1965-1968 - Disc 2 of 4

Used drive : HP DVD Writer 1040r Adapter: 1 ID: 0

Read mode : Secure
Utilize accurate stream : Yes
Defeat audio cache : Yes
Make use of C2 pointers : No

Read offset correction : 6
Overread into Lead-In and Lead-Out : No
Fill up missing offset samples with silence : Yes
Delete leading and trailing silent blocks : No
Null samples used in CRC calculations : Yes
Used interface : Native Win32 interface for Win NT & 2000

Used output format : User Defined Encoder
Selected bitrate : 1024 kBit/s
Quality : High
Add ID3 tag : No
Command line compressor : C:\Program Files\Exact Audio Copy\FLAC\FLAC.EXE
Additional command line options : -5 -V -T "ARTIST=%a" -T "TITLE=%t" -T "ALBUM=%g" -T "DATE=%y" -T "TRACKNUMBER=%n" -T "GENRE=%m" -T "COMMENT=EAC Flac 1.1.2 -5" %s


TOC of the extracted CD

Track | Start | Length | Start sector | End sector
––––––––––––––––––––––––––––-
1 | 0:00.00 | 2:28.27 | 0 | 11126
2 | 2:28.27 | 2:47.02 | 11127 | 23653
3 | 5:15.29 | 1:54.22 | 23654 | 32225
4 | 7:09.51 | 2:30.58 | 32226 | 43533
5 | 9:40.34 | 2:23.28 | 43534 | 54286
6 | 12:03.62 | 2:40.65 | 54287 | 66351
7 | 14:44.52 | 2:34.67 | 66352 | 77968
8 | 17:19.44 | 2:27.56 | 77969 | 89049
9 | 19:47.25 | 2:20.37 | 89050 | 99586
10 | 22:07.62 | 2:14.11 | 99587 | 109647
11 | 24:21.73 | 2:04.04 | 109648 | 118951
12 | 26:26.02 | 2:27.33 | 118952 | 130009
13 | 28:53.35 | 2:33.67 | 130010 | 141551
14 | 31:27.27 | 1:51.20 | 141552 | 149896
15 | 33:18.47 | 3:01.74 | 149897 | 163545
16 | 36:20.46 | 3:05.32 | 163546 | 177452
17 | 39:26.03 | 2:24.37 | 177453 | 188289
18 | 41:50.40 | 2:02.68 | 188290 | 197507
19 | 43:53.33 | 2:14.23 | 197508 | 207580
20 | 46:07.56 | 2:46.74 | 207581 | 220104
21 | 48:54.55 | 2:28.28 | 220105 | 231232
22 | 51:23.08 | 3:08.19 | 231233 | 245351
23 | 54:31.27 | 2:06.43 | 245352 | 254844
24 | 56:37.70 | 2:28.18 | 254845 | 265962
25 | 59:06.13 | 2:14.46 | 265963 | 276058
26 | 61:20.59 | 2:38.43 | 276059 | 287951


Range status and errors

Selected range

Filename C:\Users\Mike3\Desktop\Nuggets\Where the Action Is! Los Angeles Nuggets 1968-1969 (Flac)\Disc 2 - Beyond the City\Various Artists - Where the Action Is! Los Angeles Nuggets 1965-1968 - Disc 2 of 4.wav

Suspicious position 1:03:59

Peak level 100.0 %
Range quality 99.9 %
Copy CRC 03941735
Copy finished

There were errors


AccurateRip summary

Track 1 cannot be verified as accurate (confidence 3) [664A1BB2], AccurateRip returned [9695B33C]
Track 2 cannot be verified as accurate (confidence 3) [3D375047], AccurateRip returned [24A88D93]
Track 3 cannot be verified as accurate (confidence 3) [9EDF0366], AccurateRip returned [98805048]
Track 4 cannot be verified as accurate (confidence 3) [1F2C3B30], AccurateRip returned [3DD58FBA]
Track 5 cannot be verified as accurate (confidence 3) [FE77A85B], AccurateRip returned [5F1976D5]
Track 6 cannot be verified as accurate (confidence 3) [96692C3E], AccurateRip returned [C690B25B]
Track 7 cannot be verified as accurate (confidence 3) [2A66606A], AccurateRip returned [8C28E9E9]
Track 8 cannot be verified as accurate (confidence 3) [77973BFC], AccurateRip returned [B3A5375A]
Track 9 cannot be verified as accurate (confidence 3) [73D4947D], AccurateRip returned [554923B4]
Track 10 cannot be verified as accurate (confidence 3) [1682C9A6], AccurateRip returned [A53F9D53]
Track 11 cannot be verified as accurate (confidence 3) [AE02D658], AccurateRip returned [2DA6AB14]
Track 12 cannot be verified as accurate (confidence 3) [667403B5], AccurateRip returned [2A94E0B4]
Track 13 cannot be verified as accurate (confidence 3) [88F3BA22], AccurateRip returned [B3023C41]
Track 14 cannot be verified as accurate (confidence 3) [AF483164], AccurateRip returned [CC440272]
Track 15 cannot be verified as accurate (confidence 3) [FB196DBD], AccurateRip returned [445A41AD]
Track 16 cannot be verified as accurate (confidence 3) [C5B658F8], AccurateRip returned [7DC7C942]
Track 17 cannot be verified as accurate (confidence 2) [C76637E0], AccurateRip returned [23EC1CDB]
Track 18 cannot be verified as accurate (confidence 2) [04DA25A3], AccurateRip returned [24574D87]
Track 19 cannot be verified as accurate (confidence 3) [AC13F238], AccurateRip returned [809B9298]
Track 20 cannot be verified as accurate (confidence 3) [8AA5A413], AccurateRip returned [215FE325]
Track 21 cannot be verified as accurate (confidence 3) [1AA60670], AccurateRip returned [47CB241D]
Track 22 cannot be verified as accurate (confidence 2) [CB6F240A], AccurateRip returned [AE1E32E3]
Track 23 cannot be verified as accurate (confidence 2) [B7B953B7], AccurateRip returned [6FF35522]
Track 24 cannot be verified as accurate (confidence 2) [F0901AD2], AccurateRip returned [B6CEDC42]
Track 25 cannot be verified as accurate (confidence 2) [06C1ADD8], AccurateRip returned [A71B2736]
Track 26 not present in database

25 track(s) could not be verified as accurate
1 track(s) not present in the AccurateRip database

No tracks could be verified as accurate

End of status report


Exact Audio Copy V0.99 prebeta 5 from 4. May 2009

EAC extraction logfile from 15. December 2009, 19:54

Various Artists / Where the Action Is! Los Angeles Nuggets 1965-1968 - Disc 3 of 4

Used drive : HP DVD Writer 1040r Adapter: 1 ID: 0

Read mode : Secure
Utilize accurate stream : Yes
Defeat audio cache : Yes
Make use of C2 pointers : No

Read offset correction : 6
Overread into Lead-In and Lead-Out : No
Fill up missing offset samples with silence : Yes
Delete leading and trailing silent blocks : No
Null samples used in CRC calculations : Yes
Used interface : Native Win32 interface for Win NT & 2000

Used output format : User Defined Encoder
Selected bitrate : 1024 kBit/s
Quality : High
Add ID3 tag : No
Command line compressor : C:\Program Files\Exact Audio Copy\FLAC\FLAC.EXE
Additional command line options : -5 -V -T "ARTIST=%a" -T "TITLE=%t" -T "ALBUM=%g" -T "DATE=%y" -T "TRACKNUMBER=%n" -T "GENRE=%m" -T "COMMENT=EAC Flac 1.1.2 -5" %s


TOC of the extracted CD

Track | Start | Length | Start sector | End sector
––––––––––––––––––––––––––––-
1 | 0:00.00 | 2:12.62 | 0 | 9961
2 | 2:12.62 | 2:34.70 | 9962 | 21581
3 | 4:47.57 | 3:01.04 | 21582 | 35160
4 | 7:48.61 | 2:20.14 | 35161 | 45674
5 | 10:09.00 | 2:38.34 | 45675 | 57558
6 | 12:47.34 | 3:08.65 | 57559 | 71723
7 | 15:56.24 | 2:42.71 | 71724 | 83944
8 | 18:39.20 | 2:45.38 | 83945 | 96357
9 | 21:24.58 | 2:13.05 | 96358 | 106337
10 | 23:37.63 | 2:56.00 | 106338 | 119537
11 | 26:33.63 | 2:51.15 | 119538 | 132377
12 | 29:25.03 | 3:01.70 | 132378 | 146022
13 | 32:26.73 | 2:04.32 | 146023 | 155354
14 | 34:31.30 | 2:06.13 | 155355 | 164817
15 | 36:37.43 | 2:09.13 | 164818 | 174505
16 | 38:46.56 | 2:31.13 | 174506 | 185843
17 | 41:17.69 | 2:30.04 | 185844 | 197097
18 | 43:47.73 | 2:16.39 | 197098 | 207336
19 | 46:04.37 | 2:30.13 | 207337 | 218599
20 | 48:34.50 | 2:35.14 | 218600 | 230238
21 | 51:09.64 | 3:06.46 | 230239 | 244234
22 | 54:16.35 | 4:36.43 | 244235 | 264977
23 | 58:53.03 | 3:11.70 | 264978 | 279372
24 | 62:04.73 | 3:56.09 | 279373 | 297081
25 | 66:01.07 | 3:06.04 | 297082 | 311035


Range status and errors

Selected range

Filename C:\Users\Mike3\Desktop\Nuggets\Where the Action Is! Los Angeles Nuggets 1968-1969 (Flac)\Disc 3 - The Studio Scene\Various Artists - Where the Action Is! Los Angeles Nuggets 1965-1968 - Disc 3 of 4.wav

Suspicious position 1:04:32
Suspicious position 1:05:08

Peak level 98.8 %
Range quality 99.8 %
Copy CRC D6FD03E9
Copy finished

There were errors


AccurateRip summary

Track 1 cannot be verified as accurate (confidence 2) [0AD2F494], AccurateRip returned [23CC1703]
Track 2 cannot be verified as accurate (confidence 3) [BE9C4C95], AccurateRip returned [C470C6CD]
Track 3 cannot be verified as accurate (confidence 3) [46C699B7], AccurateRip returned [7E4A1900]
Track 4 cannot be verified as accurate (confidence 3) [50C42992], AccurateRip returned [54D311C2]
Track 5 cannot be verified as accurate (confidence 3) [3CCEA96C], AccurateRip returned [DBDF159F]
Track 6 cannot be verified as accurate (confidence 3) [5356AAEA], AccurateRip returned [037F0BBE]
Track 7 cannot be verified as accurate (confidence 3) [2EA4AB85], AccurateRip returned [AC0A8FA2]
Track 8 cannot be verified as accurate (confidence 3) [6A0F4FE8], AccurateRip returned [FEC29C47]
Track 9 cannot be verified as accurate (confidence 3) [E0DD6476], AccurateRip returned [273879ED]
Track 10 cannot be verified as accurate (confidence 3) [778DC83D], AccurateRip returned [5103A35F]
Track 11 cannot be verified as accurate (confidence 3) [B0D76B83], AccurateRip returned [58157C1B]
Track 12 cannot be verified as accurate (confidence 3) [6C4FE511], AccurateRip returned [43F78A50]
Track 13 cannot be verified as accurate (confidence 3) [751D150A], AccurateRip returned [CDDCA51A]
Track 14 cannot be verified as accurate (confidence 3) [761F3EE5], AccurateRip returned [02140643]
Track 15 cannot be verified as accurate (confidence 2) [159A0E4C], AccurateRip returned [29F6ED38]
Track 16 cannot be verified as accurate (confidence 2) [F2993AA2], AccurateRip returned [A11084D8]
Track 17 cannot be verified as accurate (confidence 2) [BE704511], AccurateRip returned [72D11948]
Track 18 cannot be verified as accurate (confidence 2) [6DBFDC19], AccurateRip returned [688E9ECC]
Track 19 cannot be verified as accurate (confidence 2) [33758722], AccurateRip returned [5A67CF81]
Track 20 cannot be verified as accurate (confidence 2) [6FD85FB8], AccurateRip returned [BB6C6C2B]
Track 21 cannot be verified as accurate (confidence 2) [C279F5B2], AccurateRip returned [D81E554E]
Track 22 cannot be verified as accurate (confidence 3) [2DF33ECC], AccurateRip returned [863AEF98]
Track 23 cannot be verified as accurate (confidence 3) [48A8CECC], AccurateRip returned [56B9BAC8]
Track 24 cannot be verified as accurate (confidence 2) [E6E79C5D], AccurateRip returned [5480C0F8]
Track 25 cannot be verified as accurate (confidence 2) [31189FA2], AccurateRip returned [46AD0042]

No tracks could be verified as accurate

End of status report


Exact Audio Copy V0.99 prebeta 5 from 4. May 2009

EAC extraction logfile from 21. December 2009, 3:45

Various Artists / Where the Action Is! Los Angeles Nuggets 1965-1968 - Disc 4 of 4

Used drive : HP DVD Writer 1040r Adapter: 1 ID: 0

Read mode : Secure
Utilize accurate stream : Yes
Defeat audio cache : Yes
Make use of C2 pointers : No

Read offset correction : 6
Overread into Lead-In and Lead-Out : No
Fill up missing offset samples with silence : Yes
Delete leading and trailing silent blocks : No
Null samples used in CRC calculations : Yes
Used interface : Native Win32 interface for Win NT & 2000

Used output format : User Defined Encoder
Selected bitrate : 1024 kBit/s
Quality : High
Add ID3 tag : No
Command line compressor : C:\Program Files\Exact Audio Copy\FLAC\FLAC.EXE
Additional command line options : -5 -V -T "ARTIST=%a" -T "TITLE=%t" -T "ALBUM=%g" -T "DATE=%y" -T "TRACKNUMBER=%n" -T "GENRE=%m" -T "COMMENT=EAC Flac 1.1.2 -5" %s


TOC of the extracted CD

Track | Start | Length | Start sector | End sector
––––––––––––––––––––––––––––-
1 | 0:00.00 | 2:49.69 | 0 | 12743
2 | 2:49.69 | 2:23.37 | 12744 | 23505
3 | 5:13.31 | 2:59.66 | 23506 | 36996
4 | 8:13.22 | 2:08.08 | 36997 | 46604
5 | 10:21.30 | 2:36.54 | 46605 | 58358
6 | 12:58.09 | 2:30.73 | 58359 | 69681
7 | 15:29.07 | 2:44.00 | 69682 | 81981
8 | 18:13.07 | 2:17.18 | 81982 | 92274
9 | 20:30.25 | 2:34.50 | 92275 | 103874
10 | 23:05.00 | 2:35.02 | 103875 | 115501
11 | 25:40.02 | 2:18.64 | 115502 | 125915
12 | 27:58.66 | 2:17.15 | 125916 | 136205
13 | 30:16.06 | 2:15.34 | 136206 | 146364
14 | 32:31.40 | 2:56.55 | 146365 | 159619
15 | 35:28.20 | 2:59.02 | 159620 | 173046
16 | 38:27.22 | 2:18.08 | 173047 | 183404
17 | 40:45.30 | 3:00.30 | 183405 | 196934
18 | 43:45.60 | 2:04.02 | 196935 | 206236
19 | 45:49.62 | 2:00.19 | 206237 | 215255
20 | 47:50.06 | 2:13.49 | 215256 | 225279
21 | 50:03.55 | 4:35.26 | 225280 | 245930
22 | 54:39.06 | 3:20.40 | 245931 | 260970
23 | 57:59.46 | 2:59.43 | 260971 | 274438
24 | 60:59.14 | 6:51.07 | 274439 | 305270
25 | 67:50.21 | 3:40.25 | 305271 | 321795


Range status and errors

Selected range

Filename C:\Users\Mike3\Desktop\Nuggets\Where the Action Is! Los Angeles Nuggets 1968-1969 (Flac)\Disc 4 - New Directions\Various Artists - Where the Action Is! Los Angeles Nuggets 1965-1968 - Disc 4 of 4.wav

Peak level 100.0 %
Range quality 99.9 %
Copy CRC DD5C22E0
Copy OK

No errors occurred


AccurateRip summary

Track 1 not present in database
Track 2 not present in database
Track 3 not present in database
Track 4 not present in database
Track 5 not present in database
Track 6 not present in database
Track 7 not present in database
Track 8 not present in database
Track 9 not present in database
Track 10 not present in database
Track 11 not present in database
Track 12 not present in database
Track 13 not present in database
Track 14 not present in database
Track 15 not present in database
Track 16 not present in database
Track 17 not present in database
Track 18 not present in database
Track 19 not present in database
Track 20 not present in database
Track 21 not present in database
Track 22 not present in database
Track 23 not present in database
Track 24 not present in database
Track 25 not present in database

None of the tracks are present in the AccurateRip database

End of status report

Files
Flac (746 Kbps ABR) = 1.39GB
Lame 320 = 640MB
400 dpi jpeg Scans Included
59 Page 300 dpi pdf booklet = 532MB





No mirrors