Tags
Language
Tags

Wigwam - Tombstone Valentine (1970) [Reissue 2003]

Posted By: gribovar
Wigwam - Tombstone Valentine (1970) [Reissue 2003]

Wigwam - Tombstone Valentine (1970) [Reissue 2003]
EAC Rip | FLAC (image+.cue+log) - 226 MB | MP3 CBR 320 kbps (LAME 3.93) - 84 MB | Covers - 8 MB
Genre: Progressive Rock | RAR 3% Rec. | Label: Love Records (LRCD 19)

A Finnish band fronted by ex-Pat Brit Jim Pembroke, Wigwam made some of the best hard progressive rock of the '70's. This record is a delightful effort with a real late '60's vibe featuring Pembroke's observant, and witty songwriting, diverse instrumentaion, orchestration and flashes of fuzz guitar. Somewhere between Procul Harum, Traffic and Caravan this is a lost classic of British/Finnish progressive rock music.

Tracklist:
01. Tombstone Valentine
02. In Gratitude
03. Dance of the Anthropoids
04. Frederick & Bill
05. Wishful Thinker
06. Autograph
07. 1936 Lost in the Snow
08. Let the World Ramble On
09. For America
10. Captain Supernatural
11. End

Total time: 35:41

Exact Audio Copy V0.99 prebeta 4 from 23. January 2008

EAC extraction logfile from 26. July 2008, 20:38

Wigwam / Tombstone Valentine

Used drive : LITE-ON DVDRW LH-20A1P Adapter: 0 ID: 2

Read mode : Secure
Utilize accurate stream : Yes
Defeat audio cache : Yes
Make use of C2 pointers : No

Read offset correction : 6
Overread into Lead-In and Lead-Out : No
Fill up missing offset samples with silence : Yes
Delete leading and trailing silent blocks : No
Null samples used in CRC calculations : Yes
Used interface : Installed external ASPI interface

Used output format : Internal WAV Routines
Sample format : 44.100 Hz; 16 Bit; Stereo


TOC of the extracted CD

Track | Start | Length | Start sector | End sector
––––––––––––––––––––––––––––-
1 | 0:00.00 | 3:07.64 | 0 | 14088
2 | 3:07.64 | 3:48.68 | 14089 | 31256
3 | 6:56.57 | 1:07.47 | 31257 | 36328
4 | 8:04.29 | 4:27.20 | 36329 | 56373
5 | 12:31.49 | 3:48.38 | 56374 | 73511
6 | 16:20.12 | 2:40.46 | 73512 | 85557
7 | 19:00.58 | 2:13.10 | 85558 | 95542
8 | 21:13.68 | 3:24.24 | 95543 | 110866
9 | 24:38.17 | 4:23.40 | 110867 | 130631
10 | 29:01.57 | 3:03.30 | 130632 | 144386
11 | 32:05.12 | 3:35.61 | 144387 | 160572


Range status and errors

Selected range

Filename D:\flogger77\Wigwam - Tombstone Valentine.wav

Peak level 99.2 %
Range quality 100.0 %
Copy CRC 11925820
Copy OK

No errors occurred

End of status report

[CUETools log; Date: 28.11.2021 23:07:53; Version: 2.1.4]
[CTDB TOCID: joztV5MShtUKyHstWNnlUjT8CI0-] found.
Track | CTDB Status
1 | (33/33) Accurately ripped
2 | (32/33) Accurately ripped
3 | (33/33) Accurately ripped
4 | (33/33) Accurately ripped
5 | (33/33) Accurately ripped
6 | (33/33) Accurately ripped
7 | (33/33) Accurately ripped
8 | (33/33) Accurately ripped
9 | (33/33) Accurately ripped
10 | (33/33) Accurately ripped
11 | (33/33) Accurately ripped
[AccurateRip ID: 000e5471-007cb4aa-9b085c0b] found.
Track [ CRC | V2 ] Status
01 [8cb6c3f6|3a5b9bb8] (00+02/29) Accurately ripped
02 [8eb97c29|09217357] (00+02/29) Accurately ripped
03 [f195bfd3|1b792323] (00+02/29) Accurately ripped
04 [5272839b|4920f6cb] (00+02/29) Accurately ripped
05 [7af44565|38631ded] (00+02/29) Accurately ripped
06 [766fc339|03092f02] (00+02/29) Accurately ripped
07 [17bffe57|b35df3ec] (00+02/29) Accurately ripped
08 [1f0edc64|5a9c4816] (00+02/29) Accurately ripped
09 [408b0afa|7a358a74] (00+02/29) Accurately ripped
10 [c0040dc9|2fa5f8d9] (00+02/29) Accurately ripped
11 [6e17cc0d|af3c80d9] (00+02/29) Accurately ripped
Offsetted by -646:
01 [80eae318] (09/29) Accurately ripped
02 [ed7b6274] (09/29) Accurately ripped
03 [223639c9] (09/29) Accurately ripped
04 [f464e310] (09/29) Accurately ripped
05 [73da7dc7] (09/29) Accurately ripped
06 [d51ddf88] (09/29) Accurately ripped
07 [7c59d89e] (09/29) Accurately ripped
08 [aa889794] (09/29) Accurately ripped
09 [0d9e1558] (09/29) Accurately ripped
10 [27cfb538] (09/29) Accurately ripped
11 [22d31774] (09/29) Accurately ripped
Offsetted by -492:
01 [542688a6] (02/29) Accurately ripped
02 [74614f60] (02/29) Accurately ripped
03 [0fc6f447] (02/29) Accurately ripped
04 [71ec2091] (02/29) Accurately ripped
05 [a328283c] (02/29) Accurately ripped
06 [b672fcc3] (02/29) Accurately ripped
07 [a3ad1521] (02/29) Accurately ripped
08 [489699d3] (02/29) Accurately ripped
09 [e1473e65] (02/29) Accurately ripped
10 [009b9865] (02/29) Accurately ripped
11 [600e9dff] (02/29) Accurately ripped
Offsetted by 6:
01 [3a29fea7] (02/29) Accurately ripped
02 [47298e93] (02/29) Accurately ripped
03 [f6d45953] (02/29) Accurately ripped
04 [e5894490] (02/29) Accurately ripped
05 [2c8638d3] (02/29) Accurately ripped
06 [a8400482] (02/29) Accurately ripped
07 [8020e802] (02/29) Accurately ripped
08 [41857714] (02/29) Accurately ripped
09 [4d056b5e] (02/29) Accurately ripped
10 [e40db25d] (02/29) Accurately ripped
11 [26e76ec3] (02/29) Accurately ripped
Offsetted by -1310:
01 [d7df0c8d] (00/29) No match (V2 was not tested)
02 [6e3cdd87] (00/29) No match (V2 was not tested)
03 [09cdc06f] (00/29) No match (V2 was not tested)
04 [346b7ca2] (00/29) No match (V2 was not tested)
05 [87f1443f] (00/29) No match (V2 was not tested)
06 [aa0dde90] (00/29) No match (V2 was not tested)
07 [920e0c64] (00/29) No match (V2 was not tested)
08 [20fccf28] (00/29) No match (V2 was not tested)
09 [a800c13a] (00/29) No match (V2 was not tested)
10 [d09998ea] (00/29) No match (V2 was not tested)
11 [2eeda386] (00/29) No match (V2 was not tested)

Track Peak [ CRC32 ] [W/O NULL] [ LOG ]
– 99,2 [11925820] [0791B8FE] CRC32
01 99,2 [93D988F5] [46CA53C1]
02 99,1 [8A2BCE6A] [170746AA]
03 90,9 [6B82D63F] [7D9E1784]
04 94,8 [3A63A516] [2C070B8D]
05 99,2 [80CDF6CD] [AEB05CBA]
06 90,3 [87974169] [E5E42357]
07 99,1 [C81609FB] [E8A36CAC]
08 99,1 [E8153042] [017263F2]
09 86,2 [3C0A65CC] [1A1AFAB7]
10 95,8 [EE4D1277] [DE297C32]
11 88,3 [0485A85B] [12FC63B1]

Thanks to flogger77

See also:
Wigwam - Nuclear Nightclub (1975) [2CD Reissue 2018]
Wigwam - Lucky Golden Stripes And Starpose (1976) [2CD Reissue 2018]