Tags
Language
Tags

William Christie, Les Arts Florissants - Mozart: Requiem (1995)

Posted By: ArlegZ
William Christie, Les Arts Florissants - Mozart: Requiem (1995)

William Christie, Les Arts Florissants - Mozart: Requiem (1995)
EAC | FLAC | Image (Cue & Log) ~ 239 Mb | Total time: 53:39 | Scans included
Classical | Label: Erato | # 0630-10697-2 | Recorded: 1994

For all the lovely recordings of the Mozart Requiem, KV 626 - and there are many fine ones that run the gamut of 'authoritative/authentic' performances to richly robust and romantic versions that ring the halls with operatic grandeur - this 1995 recording with William Christie conducting Les Arts Florissantes is one that is so richly rewarding to return to for its delicate yet soulful sincerity. The instruments are in keeping with the instruments of Mozart's time, and the choral technique is more straight toned than other more modern choruses. The soloists - Anna Maria Panzarella, soprano, Nathalie Stutzmann, alto, Christoph Pregardien, tenor, and Nathan Berg, bass - are all excellent, both as individuals and in quartet and combinations. But the overwhelming beauty of this recording is the concept and conducting of William Christie. He crowns this magnificent performance of the Requiem with an otherworldly 'Ave Verum Corpus' KV 618. This is a collector's item and deserves serious consideration for including in the music library.
–Grady Harp

Performer:
Anna Maria Panzarella,soprano
Nathalie Stutzmann, alto
Christoph Prégardien, tenor
Nathan Berg, bass
Monica Huggett, violin
Les Arts Florissants
William Christie, conductor

Track List:
Requiem, KV 626
01. Introitus
02. Kyrie
03. Dies Irae
04. Tuba Mirum
05. Rex Tremendae
06. Recordare
07. Confutatis
08. Lacrimosa
09. Domine Jesu
10. Hostias
11. Sanctus
12. Benedictus
13. Agnus Dei
14. Lux Aeterna
15. Ave Verum Corpus, KV 618


Exact Audio Copy V1.6 from 23. October 2020

EAC extraction logfile from 21. July 2021, 16:34

Panzarella; Stutzmann; Prégardien; Berg / Mozart: Requiem KV 626 (Süßmayr version) (Hugget)

Used drive : ATAPI iHAS122 F Adapter: 1 ID: 0

Read mode : Secure
Utilize accurate stream : Yes
Defeat audio cache : Yes
Make use of C2 pointers : No

Read offset correction : 6
Overread into Lead-In and Lead-Out : No
Fill up missing offset samples with silence : Yes
Delete leading and trailing silent blocks : No
Null samples used in CRC calculations : Yes
Used interface : Native Win32 interface for Win NT & 2000

Used output format : User Defined Encoder
Selected bitrate : 768 kBit/s
Quality : High
Add ID3 tag : No
Command line compressor : C:\Program Files (x86)\Exact Audio Copy\FLAC\FLAC.EXE
Additional command line options : -6 -V -T "ARTIST=%artist%" -T "TITLE=%title%" -T "ALBUM=%albumtitle%" -T "DATE=%year%" -T "TRACKNUMBER=%tracknr%" -T "GENRE=%genre%" -T "COMMENT=%comment%" -T "BAND=%albuminterpret%" -T "ALBUMARTIST=%albuminterpret%" -T "COMPOSER=%composer%" %haslyrics%–tag-from-file=LYRICS="%lyricsfile%"%haslyrics% -T "DISCNUMBER=%cdnumber%" -T "TOTALDISCS=%totalcds%" -T "TOTALTRACKS=%numtracks%" %hascover%–picture="%coverfile%"%hascover% %source% -o %dest%


TOC of the extracted CD

Track | Start | Length | Start sector | End sector
––––––––––––––––––––––––––––-
1 | 0:00.00 | 5:13.62 | 0 | 23536
2 | 5:13.62 | 2:18.53 | 23537 | 33939
3 | 7:32.40 | 1:47.52 | 33940 | 42016
4 | 9:20.17 | 3:15.60 | 42017 | 56701
5 | 12:36.02 | 2:12.03 | 56702 | 66604
6 | 14:48.05 | 6:08.70 | 66605 | 94274
7 | 20:57.00 | 2:51.32 | 94275 | 107131
8 | 23:48.32 | 3:20.33 | 107132 | 122164
9 | 27:08.65 | 3:42.27 | 122165 | 138841
10 | 30:51.17 | 4:00.30 | 138842 | 156871
11 | 34:51.47 | 1:34.30 | 156872 | 163951
12 | 36:26.02 | 4:56.38 | 163952 | 186189
13 | 41:22.40 | 3:21.22 | 186190 | 201286
14 | 44:43.62 | 5:22.53 | 201287 | 225489
15 | 50:06.40 | 3:31.35 | 225490 | 241349


Range status and errors

Selected range

Filename K:\Tubarec rips\Rouse- Der Gerettete Alberich, Rapture, Violin Concerto - Segerstam\Panzarella; Stutzmann; Prégardien; Berg - Mozart- Requiem KV 626 (Süßmayr version).wav

Peak level 100.0 %
Extraction speed 7.7 X
Range quality 99.9 %
Test CRC AD8C8775
Copy CRC AD8C8775
Copy OK

No errors occurred


AccurateRip summary

Track 1 accurately ripped (confidence 40) [DFEEC3E3] (AR v2)
Track 2 accurately ripped (confidence 40) [59D06875] (AR v2)
Track 3 accurately ripped (confidence 40) [738698CA] (AR v2)
Track 4 accurately ripped (confidence 40) [854BBF50] (AR v2)
Track 5 accurately ripped (confidence 40) [39A12EDD] (AR v2)
Track 6 accurately ripped (confidence 40) [0A740E48] (AR v2)
Track 7 accurately ripped (confidence 40) [DE7B33B6] (AR v2)
Track 8 accurately ripped (confidence 40) [3D14E672] (AR v2)
Track 9 accurately ripped (confidence 40) [909F08B2] (AR v2)
Track 10 accurately ripped (confidence 39) [68FEF4E7] (AR v2)
Track 11 accurately ripped (confidence 39) [53911E2E] (AR v2)
Track 12 accurately ripped (confidence 40) [3EC40F71] (AR v2)
Track 13 accurately ripped (confidence 40) [5AD84B56] (AR v2)
Track 14 accurately ripped (confidence 40) [878FB660] (AR v2)
Track 15 accurately ripped (confidence 40) [4635E2AD] (AR v2)

All tracks accurately ripped

End of status report

–– CUETools DB Plugin V2.1.6

[CTDB TOCID: p.BOO.ShO7o20N9MNkpblCM1c78-] found
Submit result: p.BOO.ShO7o20N9MNkpblCM1c78- has been confirmed
Track | CTDB Status
1 | (146/147) Accurately ripped
2 | (146/147) Accurately ripped
3 | (145/147) Accurately ripped
4 | (145/147) Accurately ripped
5 | (146/147) Accurately ripped
6 | (143/147) Accurately ripped
7 | (144/147) Accurately ripped
8 | (144/147) Accurately ripped
9 | (144/147) Accurately ripped
10 | (145/147) Accurately ripped
11 | (146/147) Accurately ripped
12 | (146/147) Accurately ripped
13 | (145/147) Accurately ripped
14 | (145/147) Accurately ripped
15 | (143/147) Accurately ripped


==== Log checksum 93FF8C704A3754468EA5D85FB80E2FD72D919301A7D0474700169DB8974A8C07 ====


William Christie, Les Arts Florissants - Mozart: Requiem (1995)

Thanks to the original releaser