Tags
Language
Tags
June 2024
Su Mo Tu We Th Fr Sa
26 27 28 29 30 31 1
2 3 4 5 6 7 8
9 10 11 12 13 14 15
16 17 18 19 20 21 22
23 24 25 26 27 28 29
30 1 2 3 4 5 6

William Parker/In Order To Survive - The Peach Orchard (2CD) (1998) {Aum Fidelity} **[RE-UP]**

Posted By: TestTickles
William Parker/In Order To Survive - The Peach Orchard (2CD) (1998) {Aum Fidelity} **[RE-UP]**

William Parker/In Order To Survive - The Peach Orchard (2CD) (1998) {Aum Fidelity}
EAC Rip | FLAC with CUE and log | scans | 886 mb
MP3 CBR 320kbps | RAR | 319 mb
Genre: jazz, free jazz

The Peach Orchard is a double CD released in 1998 by William Parker and a group of musicians he calls In Order To Survive. These musicians include Susie Ibarra, Rob Brown, and Cooper-Moore, with help from Assif Tsahar. This comes through courtesy of Aum Fidelity.

William Parker/In Order To Survive - The Peach Orchard (2CD) (1998) {Aum Fidelity} **[RE-UP]**

DISC 1
1. Thot (14:12)
2. Moholo (18:51)
3. Three Clay Pots (15:24)
4. The Peach Orchard (20:45)

DISC 2
1. Posium Pendasem #3 (11:36)
2. Leaf Dance (25:28)
3. Theme From Pelikan (17:10)
4. In Order To Survive (12:24)

William Parker-bass
Cooper-Moore-piano
Rob Brown-alto sax
Susie Ibarra-drums

Assif Tsahar-bass clarinet

Produced by William Parker & Steven Joerg
Recorded by Alen Hadzi Stefanov
1/1, 1/4: 8-track at Context, NYC on 20 March, 1998
1/2, 1/3, 2/4: 8-track at Knitting Factory, NYC on 2 July, 1997
2/2, 2/3: direct to DAT at Alterknit, NYC on 7 February, 1997
2/1: 8-track at Context, NYC on 21 March, 1988

Mixed by Alex Head
Mastered by Chris Flam

EAC extraction logfile from 25. June 2017, 17:58 for CD
William Parker/In Order To Survive / The Peach Orchard (Disc 1)

Used drive : TSSTcorpDVD+-RW TS-H653B Adapter: 2 ID: 0
Read mode : Secure with NO C2, accurate stream, disable cache
Read offset correction : 6
Overread into Lead-In and Lead-Out : No

Used output format : Internal WAV Routines
44.100 Hz; 16 Bit; Stereo

Other options :
Fill up missing offset samples with silence : Yes
Delete leading and trailing silent blocks : No
Native Win32 interface for Win NT & 2000


Track 1
Filename C:\Documents and Settings\Desktop\FLAC's\07\William Parker, In

Order To Survive - The Peach Orchard (2CD) (1998) [FLAC] {Aum Fidelity}\Disc 1\01

- Thot.wav

Pre-gap length 0:00:02.00

Peak level 100.0 %
Track quality 100.0 %
Test CRC C80FD782
Copy CRC C80FD782
Copy OK

Track 2
Filename C:\Documents and Settings\Desktop\FLAC's\07\William Parker, In

Order To Survive - The Peach Orchard (2CD) (1998) [FLAC] {Aum Fidelity}\Disc 1\02

- Moholo.wav

Pre-gap length 0:00:03.00

Peak level 100.0 %
Track quality 100.0 %
Test CRC 6609822E
Copy CRC 6609822E
Copy OK

Track 3
Filename C:\Documents and Settings\Desktop\FLAC's\07\William Parker, In

Order To Survive - The Peach Orchard (2CD) (1998) [FLAC] {Aum Fidelity}\Disc 1\03

- Three Clay Pots.wav

Pre-gap length 0:00:03.41

Peak level 100.0 %
Track quality 100.0 %
Test CRC A015894D
Copy CRC A015894D
Copy OK

Track 4
Filename C:\Documents and Settings\Desktop\FLAC's\07\William Parker, In

Order To Survive - The Peach Orchard (2CD) (1998) [FLAC] {Aum Fidelity}\Disc 1\04

- The Peach Orchard.wav

Pre-gap length 0:00:03.00

Peak level 100.0 %
Track quality 100.0 %
Test CRC 69F0FF51
Copy CRC 69F0FF51
Copy OK

No errors occured


End of status report







EAC extraction logfile from 25. June 2017, 19:01 for CD
William Parker/In Order To Survive / The Peach Orchard (Disc 2)

Used drive : TSSTcorpDVD+-RW TS-H653B Adapter: 2 ID: 0
Read mode : Secure with NO C2, accurate stream, disable cache
Read offset correction : 6
Overread into Lead-In and Lead-Out : No

Used output format : Internal WAV Routines
44.100 Hz; 16 Bit; Stereo

Other options :
Fill up missing offset samples with silence : Yes
Delete leading and trailing silent blocks : No
Native Win32 interface for Win NT & 2000


Track 1
Filename C:\Documents and Settings\Desktop\FLAC's\07\William Parker, In

Order To Survive - The Peach Orchard (2CD) (1998) [FLAC] {Aum Fidelity}\Disc 2\01

- Posium Pendasem #3.wav

Pre-gap length 0:00:02.00

Peak level 100.0 %
Track quality 100.0 %
Test CRC 2A0D1C04
Copy CRC 2A0D1C04
Copy OK

Track 2
Filename C:\Documents and Settings\Desktop\FLAC's\07\William Parker, In

Order To Survive - The Peach Orchard (2CD) (1998) [FLAC] {Aum Fidelity}\Disc 2\02

- Leaf Dance.wav

Pre-gap length 0:00:01.00

Peak level 100.0 %
Track quality 100.0 %
Test CRC 1731FB52
Copy CRC 1731FB52
Copy OK

Track 3
Filename C:\Documents and Settings\Desktop\FLAC's\07\William Parker, In

Order To Survive - The Peach Orchard (2CD) (1998) [FLAC] {Aum Fidelity}\Disc 2\03

- Theme From Pelikan.wav

Peak level 100.0 %
Track quality 100.0 %
Test CRC 6C9E56B1
Copy CRC 6C9E56B1
Copy OK

Track 4
Filename C:\Documents and Settings\Desktop\FLAC's\07\William Parker, In

Order To Survive - The Peach Orchard (2CD) (1998) [FLAC] {Aum Fidelity}\Disc 2\04

- In Order To Survive.wav

Pre-gap length 0:00:03.00

Peak level 79.4 %
Track quality 100.0 %
Test CRC 8E3C1452
Copy CRC 8E3C1452
Copy OK

No errors occured


End of status report


William Parker/In Order To Survive - The Peach Orchard (2CD) (1998) {Aum Fidelity} **[RE-UP]**