Tags
Language
Tags
April 2024
Su Mo Tu We Th Fr Sa
31 1 2 3 4 5 6
7 8 9 10 11 12 13
14 15 16 17 18 19 20
21 22 23 24 25 26 27
28 29 30 1 2 3 4

Yasha Papian - Armenian Classical Music for Viola Solo (E.Erkanyan, E.Hovanesyan, A.Voskanyan, G.Hackinyan)

Posted By: Aregak
Yasha Papian - Armenian Classical Music for Viola Solo (E.Erkanyan, E.Hovanesyan, A.Voskanyan, G.Hackinyan)

Yasha Papian (viola) - Armenian Classical Music for Viola Solo (E.Erkanyan, E.Hovanesyan, A.Voskanyan, G.Hackinyan) (2004)
EAC Rip | FLAC, IMG+CUE, LOG, Scans (jpg) | 50:25 | 258.5 MB
Classical | Label: Armenia TV

Yakov Papyan (b. 1940), also known as Yasha Papian, is an Armenian viola player, laureate of various Soviet and international competitions, the Honored Artist of Armenia. He had been studying with Mikhail Terian and later received his PhD diploma from the Saint Petersburg Conservatory. Since 1996, Yasha Papian lives in California, USA.
Performer:
Yasha Papian - Viola
Hakop Mekinyan - Violin

Track Listings:
1. Ervand Erkanyan. Avetum (Monologue)
Andante Doloroso
2. Edgar Hovanesyan. Sonata
Adagio
Allegro
Adagio
3. Arzas Voskanyan. Sonata Monologue
Andante поп troppo
Allegro
Lento
4. Grigor Hackinyan. Duet for violin and viola
Adagio
Allegro
Adagio

Exact Audio Copy V1.0 beta 1 from 15. November 2010

EAC extraction logfile from 19. March 2012, 20:38

Yasha Papian / Armenian Classical Music for Viola Solo

Used drive : ASUS DRW-1814BL Adapter: 0 ID: 0

Read mode : Secure
Utilize accurate stream : Yes
Defeat audio cache : Yes
Make use of C2 pointers : No

Read offset correction : 6
Overread into Lead-In and Lead-Out : No
Fill up missing offset samples with silence : Yes
Delete leading and trailing silent blocks : No
Null samples used in CRC calculations : Yes
Used interface : Native Win32 interface for Win NT & 2000

Used output format : User Defined Encoder
Selected bitrate : 768 kBit/s
Quality : High
Add ID3 tag : No
Command line compressor : C:\Program Files\Exact Audio Copy\Flac\flac.exe
Additional command line options : -8 -V %s

TOC of the extracted CD

Track | Start | Length | Start sector | End sector
––––––––––––––––––––––––––––-
1 | 0:00.00 | 5:58.30 | 0 | 26879
2 | 5:58.30 | 18:57.68 | 26880 | 112222
3 | 24:56.23 | 14:56.71 | 112223 | 179493
4 | 39:53.19 | 10:38.45 | 179494 | 227388

Range status and errors

Selected range

Filename C:\Program Files\Exact Audio Copy\Flac\Yasha Papian - Armenian Classical Music for Viola Solo.wav

Peak level 100.0 %
Extraction speed 1.6 X
Range quality 100.0 %
Test CRC CFF4DB86
Copy CRC CFF4DB86
Copy OK

No errors occurred

AccurateRip summary

Track 1 not present in database
Track 2 not present in database
Track 3 not present in database
Track 4 not present in database

None of the tracks are present in the AccurateRip database

End of status report

==== Log checksum 8B49FAB4FBFB377905005186D61B579EBEB54A2D0F70F2B423C0A6FF1145A993 ====