Subcategories
Tags
Language
Tags

Zentralquartett - Plie (1994)

Posted By: v3122
Zentralquartett - Plie (1994)

Zentralquartett - Plie (1994)
EAC | Flac(Image) + Cue + Log & MP3 CBR 320Kbps
Intakt Records, CD 037 | ~ 307 or 135 Mb | Artwork(jpg) -> 49 Mb
Avant-Garde Jazz, Free-Jazz

~ Recorded at Radio Studio, Zürich on 1 February 1994. ~

Zentralquartett - Plie (1994)

Zentralquartett - Plie (1994):

Zentralquartett - Plie (1994)

Tracklist:

01. Halb-5 (06.08)
02. Ode an Marul (08.07)
03. Conference at Baby's (04.22)
04. Rue Sthrau (06.22)
05. Fünf miniaturen. Index I-V (04.40)
06. For ELP (07.36)
07. Soul plexus (03.22)
08. Conference at Lutens (02.58)
09. Plié für Inge (05.56)
10. Schmetterling (06.55)

Conrad Bauer - Trombone
Ulrich Gumpert - Piano
Ernst-Ludwig Petrowsky - Alto Saxophone, Flute, Clarinet
Günter Sommer - Drums, Percussion, Bells


Exact Audio Copy V0.99 prebeta 5 from 4. May 2009

EAC extraction logfile from 4. December 2010, 21:10

Zentralquartett / Plie

Used drive : TSSTcorpCDDVDW SH-S222A Adapter: 1 ID: 0

Read mode : Secure
Utilize accurate stream : Yes
Defeat audio cache : Yes
Make use of C2 pointers : No

Read offset correction : 6
Overread into Lead-In and Lead-Out : No
Fill up missing offset samples with silence : Yes
Delete leading and trailing silent blocks : No
Null samples used in CRC calculations : Yes
Used interface : Native Win32 interface for Win NT & 2000
Gap handling : Appended to previous track

Used output format : User Defined Encoder
Selected bitrate : 768 kBit/s
Quality : High
Add ID3 tag : No
Command line compressor : C:\tool\Audio\Exact Audio Copy\FLAC\FLAC.EXE
Additional command line options : -V -8 -T "ARTIST=%a" -T "TITLE=%t" -T "ALBUM=%g" -T "TRACKNUMBER=%n" -T "GENRE=%m" %s


TOC of the extracted CD

Track | Start | Length | Start sector | End sector
––––––––––––––––––––––––––––-
1 | 0:00.00 | 6:12.62 | 0 | 27961
2 | 6:12.62 | 8:11.00 | 27962 | 64786
3 | 14:23.62 | 4:27.00 | 64787 | 84811
4 | 18:50.62 | 6:26.00 | 84812 | 113761
5 | 25:16.62 | 4:44.00 | 113762 | 135061
6 | 30:00.62 | 7:38.00 | 135062 | 169411
7 | 37:38.62 | 3:25.00 | 169412 | 184786
8 | 41:03.62 | 3:02.00 | 184787 | 198436
9 | 44:05.62 | 6:00.00 | 198437 | 225436
10 | 50:05.62 | 6:55.13 | 225437 | 256574


Track 1

Filename C:\Zentralquartett - Plie\01 - Halb-5.wav

Pre-gap length 0:00:02.00

Peak level 92.3 %
Track quality 100.0 %
Test CRC 6017B7BF
Copy CRC 6017B7BF
Accurately ripped (confidence 2) [70AA2813]
Copy OK

Track 2

Filename C:\Zentralquartett - Plie\02 - Ode an Marul.wav

Pre-gap length 0:00:03.62

Peak level 92.0 %
Track quality 100.0 %
Test CRC AB959A94
Copy CRC AB959A94
Accurately ripped (confidence 2) [894930DA]
Copy OK

Track 3

Filename C:\Zentralquartett - Plie\03 - Conference at Baby's.wav

Pre-gap length 0:00:03.62

Peak level 100.0 %
Track quality 100.0 %
Test CRC 56670B1C
Copy CRC 56670B1C
Accurately ripped (confidence 2) [06A1747A]
Copy OK

Track 4

Filename C:\Zentralquartett - Plie\04 - Rue Sthrau.wav

Pre-gap length 0:00:04.62

Peak level 91.7 %
Track quality 100.0 %
Test CRC D6843A3A
Copy CRC D6843A3A
Accurately ripped (confidence 2) [58A9963E]
Copy OK

Track 5

Filename C:\Zentralquartett - Plie\05 - Fьnf Miniaturen.Index I-V.wav

Pre-gap length 0:00:03.62

Peak level 91.2 %
Track quality 100.0 %
Test CRC 1CD4D35B
Copy CRC 1CD4D35B
Accurately ripped (confidence 2) [3D027D3E]
Copy OK

Track 6

Filename C:\Zentralquartett - Plie\06 - For ELP.wav

Pre-gap length 0:00:03.62

Peak level 92.2 %
Track quality 100.0 %
Test CRC 82374BA7
Copy CRC 82374BA7
Accurately ripped (confidence 2) [AFB82375]
Copy OK

Track 7

Filename C:\Zentralquartett - Plie\07 - Soul Plexus.wav

Pre-gap length 0:00:01.62

Peak level 92.3 %
Track quality 100.0 %
Test CRC 5F4B73D9
Copy CRC 5F4B73D9
Accurately ripped (confidence 2) [31813D19]
Copy OK

Track 8

Filename C:\Zentralquartett - Plie\08 - Conference at Lutens.wav

Pre-gap length 0:00:02.62

Peak level 93.9 %
Track quality 100.0 %
Test CRC 1FBDB9ED
Copy CRC 1FBDB9ED
Accurately ripped (confidence 2) [C9931A6E]
Copy OK

Track 9

Filename C:\Zentralquartett - Plie\09 - Pliй fьr Inge.wav

Pre-gap length 0:00:03.62

Peak level 91.8 %
Track quality 100.0 %
Test CRC 017CA600
Copy CRC 017CA600
Accurately ripped (confidence 2) [12207CF8]
Copy OK

Track 10

Filename C:\Zentralquartett - Plie\10 - Schmetterling.wav

Pre-gap length 0:00:03.62

Peak level 92.0 %
Track quality 100.0 %
Test CRC D02B6C57
Copy CRC D02B6C57
Accurately ripped (confidence 2) [FFB6FC03]
Copy OK


All tracks accurately ripped

No errors occurred

End of status report


[CUETools log; Date: 15.11.2019 18:57:38; Version: 2.1.4]
[AccurateRip ID: 00164b29-00af6864-7c0d5d0a] found.
Track [ CRC | V2 ] Status
01 [70aa2813|ac1954c0] (02+03/11) Accurately ripped
02 [894930da|5cde8209] (02+03/11) Accurately ripped
03 [06a1747a|e9031946] (02+03/11) Accurately ripped
04 [58a9963e|5e957f26] (02+03/11) Accurately ripped
05 [3d027d3e|0b2d2bae] (02+03/11) Accurately ripped
06 [afb82375|9c655a55] (02+03/11) Accurately ripped
07 [31813d19|9ddaf2dd] (02+03/11) Accurately ripped
08 [c9931a6e|d96a7d75] (02+03/11) Accurately ripped
09 [12207cf8|5b270cd0] (02+03/10) Accurately ripped
10 [ffb6fc03|e5a0c3f7] (02+03/11) Accurately ripped
Offsetted by -891:
01 [8aa20ee4] (00/11) No match (V2 was not tested)
02 [4b372158] (00/11) No match (V2 was not tested)
03 [ba17687e] (00/11) No match (V2 was not tested)
04 [8eccdeb6] (00/11) No match (V2 was not tested)
05 [36c9fe12] (00/11) No match (V2 was not tested)
06 [b8e12f59] (00/11) No match (V2 was not tested)
07 [1af5d3a8] (00/11) No match (V2 was not tested)
08 [1b6f4033] (00/11) No match (V2 was not tested)
09 [41807e14] (00/10) No match (V2 was not tested)
10 [ef398c99] (00/11) No match (V2 was not tested)
Offsetted by -861:
01 [2f37187d] (00/11) No match (V2 was not tested)
02 [bd299c52] (00/11) No match (V2 was not tested)
03 [fc569831] (00/11) No match (V2 was not tested)
04 [d6809a51] (00/11) No match (V2 was not tested)
05 [e696cf00] (00/11) No match (V2 was not tested)
06 [e2586cc8] (00/11) No match (V2 was not tested)
07 [b84cc311] (00/11) No match (V2 was not tested)
08 [9e2d21da] (00/11) No match (V2 was not tested)
09 [47af45e7] (00/10) No match (V2 was not tested)
10 [5037c2a6] (00/11) No match (V2 was not tested)

Track Peak [ CRC32 ] [W/O NULL] [ LOG ]
– 100,0 [F704B8B6] [33A7F244]
01 92,3 [6017B7BF] [25A0BB9E] CRC32
02 92,0 [AB959A94] [7654D824] CRC32
03 100,0 [56670B1C] [3C587F82] CRC32
04 91,7 [D6843A3A] [0C6E20C4] CRC32
05 91,2 [1CD4D35B] [B154A927] CRC32
06 92,2 [82374BA7] [60FE42B0] CRC32
07 92,3 [5F4B73D9] [C8C078A4] CRC32
08 93,9 [1FBDB9ED] [24B7F9E9] CRC32
09 91,8 [017CA600] [75DA49CA] CRC32
10 92,0 [D02B6C57] [8A3FEEAD] CRC32


Zentralquartett - Plie (1994)

All thanks go to szakall

Download Zentralquartett - Plie (1994):