Subcategories

Zoot Sims - Quartets (1956) [Reissue 2008]

Posted By: gribovar
Zoot Sims - Quartets (1956) [Reissue 2008]

Zoot Sims - Quartets (1956) [Reissue 2008]
EAC Rip | FLAC (image+.cue+log) - 176 MB | MP3 CBR 320 kbps (LAME 3.93) - 135 MB | Covers (15 MB) included
Genre: Jazz | RAR 3% Rec. | Label: Universal Music (UCCO-9313)

This CD reissue features the great tenor-saxophonist Zoot Sims (who was then 25) leading his first American recording dates. He is heard with two quartets, the team of pianist John Lewis, bassist Curly Russell and drummer Don Lamond and with pianist Harry Biss, bassist Clyde Lombardi and drummer Art Blakey. All but two numbers clock in around the three-minute mark: an over eight-minute alternate version of "Zoot Swings the Blues" and an 11-minute "East of the Sun." Sims is in fine form throughout these cool-toned but hard-swinging sets.
Tracklist:
01. Zoot Swings The Blues (Take 1)
02. Zoot Swings The Blues (Take 2)
03. Trotting
04. I Wonder Who
05. It Had To Be You
06. My Silent Love
07. Jane-O
08. Dancing In The Dark
09. Memories Of You
10. East Of The Sun (West Of The Moon)
11. Trotting (Alternate 1)
12. Trotting (Alternate 2)

Total time: 50:42

Exact Audio Copy V1.3 from 2. September 2016

Отчёт EAC об извлечении, выполненном 9. мая 2018, 16:45

Zoot Sims / Zoot Sims Quartets

Дисковод: hp DVDRAM GT80N Adapter: 1 ID: 0

Режим чтения : Достоверность
Использование точного потока : Да
Отключение кэша аудио : Да
Использование указателей C2 : Нет

Коррекция смещения при чтении : 102
Способность читать области Lead-in и Lead-out : Нет
Заполнение пропущенных сэмплов тишиной : Да
Удаление блоков с тишиной в начале и конце : Нет
При вычислениях CRC использовались нулевые сэмплы : Да
Интерфейс : Встроенный Win32-интерфейс для Win NT/2000

Выходной формат : Пользовательский кодировщик
Выбранный битрейт : 128 kBit/s
Качество : Высокий
Добавление ID3-тега : Нет
Утилита сжатия : C:\Program Files (x86)\Exact Audio Copy\Flac\flac.exe
Дополнительные параметры : -V -8 -T "Date=%year%" -T "Genre=%genre%" %source%


TOC извлечённого CD

Трек | Старт | Длительность | Начальный сектор | Конечный сектор
––––––––––––––––––––––––––––––––––-
1 | 0:00.00 | 8:38.40 | 0 | 38889
2 | 8:38.40 | 2:28.32 | 38890 | 50021
3 | 11:06.72 | 3:48.08 | 50022 | 67129
4 | 14:55.05 | 2:38.12 | 67130 | 78991
5 | 17:33.17 | 2:49.15 | 78992 | 91681
6 | 20:22.32 | 2:39.60 | 91682 | 103666
7 | 23:02.17 | 2:44.13 | 103667 | 115979
8 | 25:46.30 | 3:30.45 | 115980 | 131774
9 | 29:17.00 | 3:07.22 | 131775 | 145821
10 | 32:24.22 | 11:07.08 | 145822 | 195854
11 | 43:31.30 | 3:23.70 | 195855 | 211149
12 | 46:55.25 | 3:46.35 | 211150 | 228134


Характеристики диапазона извлечения и сообщения об ошибках

Выбранный диапазон

Имя файла D:\Music\Zoot Sims - Zoot Sims Quartets.wav

Пиковый уровень 99.9 %
Скорость извлечения 4.1 X
Качество диапазона 99.9 %
CRC теста AFC4EA66
CRC копии AFC4EA66
Копирование… OK

Ошибок не произошло


AccurateRip: сводка

Трек 1 : извлечено точно (доверие 2) [3338BCDF] (AR v2)
Трек 2 : извлечено точно (доверие 2) [372246CD] (AR v2)
Трек 3 : извлечено точно (доверие 2) [C7F530C4] (AR v2)
Трек 4 : извлечено точно (доверие 2) [45E2DE4D] (AR v2)
Трек 5 : извлечено точно (доверие 2) [CBE1347A] (AR v2)
Трек 6 : извлечено точно (доверие 2) [B439CC1D] (AR v2)
Трек 7 : извлечено точно (доверие 2) [655FA065] (AR v2)
Трек 8 : извлечено точно (доверие 2) [FBEF0771] (AR v2)
Трек 9 : извлечено точно (доверие 2) [1B06BA1B] (AR v2)
Трек 10 : извлечено точно (доверие 2) [160C2690] (AR v2)
Трек 11 : извлечено точно (доверие 2) [D38F77EB] (AR v2)
Трек 12 : извлечено точно (доверие 2) [A0FA7D22] (AR v2)

Все треки извлечены точно

Конец отчёта

==== Контрольная сумма отчёта 5BDEDD10D8FBA09AE720D479993A38F77165F8A50394A595237B8881C7ADE34F ====

[CUETools log; Date: 25.08.2018 13:15:11; Version: 2.1.4]
[CTDB TOCID: zzis6eNnB0nXj6m9Ry12609r2V0-] found.
Track | CTDB Status
1 | (0/8) No match
2 | (0/8) No match
3 | (0/8) No match
4 | (0/8) No match
5 | (0/8) No match
6 | (0/8) No match
7 | (0/8) No match
8 | (0/8) No match
9 | (0/8) No match
10 | (0/8) No match
11 | (0/8) No match
12 | (0/8) No match
[AccurateRip ID: 0016439c-00cc5cbb-b30be10c] found.
Track [ CRC | V2 ] Status
01 [b81c7816|3338bcdf] (00+03/13) Accurately ripped
02 [2e3a4da8|372246cd] (00+03/13) Accurately ripped
03 [c7d64b02|c7f530c4] (00+03/13) Accurately ripped
04 [f5c8d5ba|45e2de4d] (00+03/13) Accurately ripped
05 [ba1a4be4|cbe1347a] (00+03/13) Accurately ripped
06 [37d78be0|b439cc1d] (00+03/13) Accurately ripped
07 [bbb33533|655fa065] (00+03/13) Accurately ripped
08 [c3ee097e|fbef0771] (00+03/13) Accurately ripped
09 [7a4cec6f|1b06ba1b] (00+03/13) Accurately ripped
10 [31026185|160c2690] (00+03/13) Accurately ripped
11 [cd60feb6|d38f77eb] (00+03/13) Accurately ripped
12 [75ada2cf|a0fa7d22] (00+03/12) Accurately ripped

Track Peak [ CRC32 ] [W/O NULL] [ LOG ]
– 99,9 [AFC4EA66] [C9A9BC57] CRC32
01 91,2 [0351CC5D] [4A476FC6]
02 81,6 [10F4ED92] [23F7DC27]
03 79,9 [82C193AF] [BD81BFA7]
04 80,4 [33C7E1C5] [A5EF3160]
05 80,4 [D10900E4] [E81EF184]
06 73,7 [EA574133] [641D84C7]
07 78,2 [4A640C7E] [93D1C620]
08 68,8 [F356D2F5] [8021C4FD]
09 73,5 [D5FB0F30] [F96688A0]
10 99,9 [E077530E] [24DE1D5E]
11 97,7 [0D7156F5] [4F86E720]
12 91,5 [F60EE287] [1E66D63A]

Thanks to nkomissar

See also: