Tags
Language
Tags

Adam O'Farrill - Stranger Days (2016) {Sunnyside SSC1450}

Posted By: ruskaval
Adam O'Farrill - Stranger Days (2016) {Sunnyside SSC1450}

Adam O'Farrill - Stranger Days (2016) {Sunnyside SSC1450}
EAC rip (secure mode) | FLAC (tracks)+CUE+LOG -> 349 Mb | MP3 @320 -> 149 Mb
Full Artwork @ 300 dpi (jpg) -> 9 Mb | 5% repair rar
© 2016 Sunnyside | SSC 1450
Jazz / Modern Jazz / Progressive Jazz / Trumpet

Stranger Days is the young trumpeter Adam O’Farrill’s official recording debut as a leader, but he’s been attracting notice from the jazz cognoscenti for a while. That’s thanks to his being featured on saxophonist Rudresh Mahanthappa’s acclaimed 2015 album, Bird Calls, as well as coleading the O’Farrill Brothers Band and working with the siblings’ father, pianist-bandleader Arturo O’Farrill. In the piano-less quartet on the new disc, Adam again is joined by drummer brother Zack O’Farrill, but the former clearly leads as chief provocateur.

The band, with Chad Lefkowitz-Brown on tenor saxophone and Walter Stinson on upright bass, takes its conceptual cues from film and theatre, designing each piece as a scene, with the musicians playing characters whose actions are intended to drive the story and affect the soundscape of that particular composition. “A&R Italian Eatery” has the horns engaging in long, sprawling lines, sometimes in unison, sometimes in harmony, and back-and-forth volleys, conversing over ambling rhythm-section figures. “The Stranger,” named for the Camus novel and inspired by Mingus, affords the leader the opportunity to assert his own voice at the start, unaccompanied, his trumpet spinning lines that double back before engaging with Stinson and then the rest of the group. “Survival Instincts” finds the horn players moving across varied terrain, seemingly fighting the rhythm section for dominance.

Stinson contributes a pair of compositions, the creep-crawling “Why She Loves” and “Forget Everything You’ve Learned at School,” which allows much open space for bass and drums. “The Cows and Their Farmer Walt,” inspired by a Mickey Mouse cartoon, is capped with Zack’s explosive solo, and the disc closes with “Lower Brooklyn Botanical Union,” its frisky melody, over a driving groove, weaving in a reference to the music of the O’Farrills’ iconic grandfather, Chico.
Adam O'Farrill - Stranger Days (2016) {Sunnyside SSC1450}


allaboutjazz.com INFO

Musicians
Trumpet Adam O'Farrill
Tenor Saxophone Chad Lefkowitz-Brown
Bass Walter Stinson
Drums Zach O'Farrill

Tracklisting
01 A & R Italian Eatery 03:29
02 The Stranger 10:17
03 Survival Instincts 06:50
04 Why She Loves 08:53
05 Alligator Got The Blues 05:51
06 Forget Everything You've Learned At School 05:44
07 The Cows And Their Farmer Walt 07:40
08 The Courtroom 03:17
09 Building The Metamorphsen Bridge 05:17
10 Lower Brooklyn Botanical Union 06:15

Exact Audio Copy V1.1 from 23. June 2015

EAC extraction logfile from 13. December 2017, 7:52

Adam O'Farrill / Survival Instincts

Used drive : MATSHITADVD+-RW SW830 Adapter: 1 ID: 0

Read mode : Secure
Utilize accurate stream : Yes
Defeat audio cache : Yes
Make use of C2 pointers : No

Read offset correction : 6
Overread into Lead-In and Lead-Out : No
Fill up missing offset samples with silence : Yes
Delete leading and trailing silent blocks : No
Null samples used in CRC calculations : Yes
Used interface : Native Win32 interface for Win NT & 2000
Gap handling : Appended to previous track

Used output format : User Defined Encoder
Selected bitrate : 896 kBit/s
Quality : High
Add ID3 tag : No
Command line compressor : C:\Program Files (x86)\Exact Audio Copy\Flac\flac.exe
Additional command line options : -8 -V -T "ARTIST=%artist%" -T "TITLE=%title%" -T "ALBUM=%albumtitle%" -T "DATE=%year%" -T "TRACKNUMBER=%tracknr%" -T "TOTALTRACKS=%numtracks%" -T "GENRE=%genre%" -T "ALBUMARTIST=%albumartist%" -T "ALBUM ARTIST=%albumartist%" -T "COMMENT=EAC Secure Mode, Test & Copy, AccurateRip, FLAC -8" %source%


TOC of the extracted CD

Track | Start | Length | Start sector | End sector
––––––––––––––––––––––––––––-
1 | 0:00.00 | 3:29.18 | 0 | 15692
2 | 3:29.18 | 10:17.21 | 15693 | 61988
3 | 13:46.39 | 6:50.12 | 61989 | 92750
4 | 20:36.51 | 8:52.62 | 92751 | 132712
5 | 29:29.38 | 5:51.30 | 132713 | 159067
6 | 35:20.68 | 5:44.01 | 159068 | 184868
7 | 41:04.69 | 7:40.06 | 184869 | 219374
8 | 48:45.00 | 3:16.64 | 219375 | 234138
9 | 52:01.64 | 5:16.73 | 234139 | 257911
10 | 57:18.62 | 6:15.13 | 257912 | 286049


Track 1

Filename G:\New Rips\Adam O'Farrill - Survival Instincts (2016) [FLAC]\01 - A And R Italian Eatery.wav

Pre-gap length 0:00:02.00

Peak level 94.4 %
Extraction speed 1.7 X
Track quality 100.0 %
Test CRC 7F8F188B
Copy CRC 7F8F188B
Track not present in AccurateRip database
Copy OK

Track 2

Filename G:\New Rips\Adam O'Farrill - Survival Instincts (2016) [FLAC]\02 - The Stranger.wav

Pre-gap length 0:00:00.02

Peak level 94.4 %
Extraction speed 2.3 X
Track quality 100.0 %
Test CRC D2315590
Copy CRC D2315590
Track not present in AccurateRip database
Copy OK

Track 3

Filename G:\New Rips\Adam O'Farrill - Survival Instincts (2016) [FLAC]\03 - Survival Instincts.wav

Pre-gap length 0:00:00.02

Peak level 94.4 %
Extraction speed 2.6 X
Track quality 100.0 %
Test CRC 24F1FB15
Copy CRC 24F1FB15
Track not present in AccurateRip database
Copy OK

Track 4

Filename G:\New Rips\Adam O'Farrill - Survival Instincts (2016) [FLAC]\04 - Why She Loves.wav

Pre-gap length 0:00:00.02

Peak level 94.4 %
Extraction speed 2.5 X
Track quality 99.9 %
Test CRC 5F267567
Copy CRC 5F267567
Track not present in AccurateRip database
Copy OK

Track 5

Filename G:\New Rips\Adam O'Farrill - Survival Instincts (2016) [FLAC]\05 - Alligator Got The Blues.wav

Pre-gap length 0:00:00.02

Peak level 94.4 %
Extraction speed 3.1 X
Track quality 100.0 %
Test CRC 44A8C13D
Copy CRC 44A8C13D
Track not present in AccurateRip database
Copy OK

Track 6

Filename G:\New Rips\Adam O'Farrill - Survival Instincts (2016) [FLAC]\06 - Forget Everything You've Learned At School.wav

Pre-gap length 0:00:00.01

Peak level 94.4 %
Extraction speed 3.3 X
Track quality 100.0 %
Test CRC CDD56A89
Copy CRC CDD56A89
Track not present in AccurateRip database
Copy OK

Track 7

Filename G:\New Rips\Adam O'Farrill - Survival Instincts (2016) [FLAC]\07 - The Cows And Their Farmer Walt.wav

Pre-gap length 0:00:00.02

Peak level 94.4 %
Extraction speed 3.5 X
Track quality 100.0 %
Test CRC D7CDC8E6
Copy CRC D7CDC8E6
Track not present in AccurateRip database
Copy OK

Track 8

Filename G:\New Rips\Adam O'Farrill - Survival Instincts (2016) [FLAC]\08 - The Courtroom.wav

Pre-gap length 0:00:00.02

Peak level 94.4 %
Extraction speed 2.4 X
Track quality 99.9 %
Test CRC F76CCE5D
Copy CRC F76CCE5D
Track not present in AccurateRip database
Copy OK

Track 9

Filename G:\New Rips\Adam O'Farrill - Survival Instincts (2016) [FLAC]\09 - Building The Metamorphsen Bridge.wav

Pre-gap length 0:00:00.02

Peak level 94.4 %
Extraction speed 3.6 X
Track quality 100.0 %
Test CRC 4DCADCF0
Copy CRC 4DCADCF0
Track not present in AccurateRip database
Copy OK

Track 10

Filename G:\New Rips\Adam O'Farrill - Survival Instincts (2016) [FLAC]\10 - Lower Brooklyn Botanical Union.wav

Pre-gap length 0:00:00.02

Peak level 94.4 %
Extraction speed 3.2 X
Track quality 99.9 %
Test CRC 3A378164
Copy CRC 3A378164
Track not present in AccurateRip database
Copy OK


None of the tracks are present in the AccurateRip database

No errors occurred

End of status report

–– CUETools DB Plugin V2.1.6

[CTDB TOCID: C8CF5.TMkfvzX7J76IlORI04o6k-] disk not present in database
Submit result: C8CF5.TMkfvzX7J76IlORI04o6k- has been uploaded


==== Log checksum 1A6253585DA4B8F537A09A0C34CD32F528C50EC5A0ECDC56D4D9B8306F6A787E ====


Adam O'Farrill - Stranger Days (2016) {Sunnyside SSC1450}

Adam O'Farrill - Stranger Days (2016) {Sunnyside SSC1450}



===