Tags
Language
Tags

Agusti Charles I Soler – Modular I & II, Sombra Obscura, Convex I, Duo, Particella (1992)

Posted By: d'Avignon
Agusti Charles I Soler – Modular I & II, Sombra Obscura, Convex I, Duo, Particella (1992)

Agusti Charles I Soler – Modular I & II, Sombra Obscura, Convex I, Duo, Particella (1992)
Classical/Contemporary | FLAC Lossless | cuesheets+log | covers+booklet | 66m25s | 208mb
Label: Emec | cat. no. E-030


Born in Manresa, Agustí Charles began his music studies at an early age. His first works in composition date from the 80s, under the guidance of his first composition teachers: Miquel Roger, Albert Sardà and Josep Soler. Later he studied with Franco Donatoni, Luigi Nono and Samuel Adler, as well as working with other composers and conductors including Joan Guinjoan, Cristóbal Halffter, J.R. Encinar and Ros Marbà.
He has had much recognition for his work, receiving nearly fifty awards, among these are the most important national and international composition prizes. He has also received commissions from important institutions and prestigious performers, as a result of which his music is performed worldwide.

Tracks:

01. Modular I [0:09:58.60]
02. Modular II [0:13:54.29]
03. Sombra Obscura [0:15:04.82]
04. Convex I [0:08:39.81]
05. Duo [0:12:09.22]
06. Particella [0:07:03.97]

Performers:

Grupo Enigma

Exact Audio Copy V1.0 beta 3 from 29. August 2011

EAC extraction logfile from 10. May 2016, 23:09

Agusti Charles / Agusti Charles I Soler

Used drive : TSSTcorpCDDVDW SH-216AB Adapter: 0 ID: 0

Read mode : Secure
Utilize accurate stream : Yes
Defeat audio cache : Yes
Make use of C2 pointers : No

Read offset correction : 6
Overread into Lead-In and Lead-Out : No
Fill up missing offset samples with silence : Yes
Delete leading and trailing silent blocks : No
Null samples used in CRC calculations : Yes
Used interface : Native Win32 interface for Win NT & 2000
Gap handling : Appended to previous track

Used output format : User Defined Encoder
Selected bitrate : 768 kBit/s
Quality : High
Add ID3 tag : No
Command line compressor : C:\Program Files (x86)\FLAC Frontend\tools\flac.exe
Additional command line options : -8 -V -T "ARTIST=%artist%" -T "TITLE=%title%" -T "ALBUM=%albumtitle%" -T "DATE=%year%" -T "TRACKNUMBER=%tracknr%" -T "GENRE=%genre%" -T "PERFORMER=%albuminterpret%" -T "COMPOSER=%composer%" %haslyrics%–tag-from-file=LYRICS="%lyricsfile%"%haslyrics% -T "ALBUMARTIST=%albumartist%" -T "DISCNUMBER=%cdnumber%" -T "TOTALDISCS=%totalcds%" -T "TOTALTRACKS=%numtracks%" -T "COMMENT=%comment%" %source% -o %dest%


TOC of the extracted CD

Track | Start | Length | Start sector | End sector
––––––––––––––––––––––––––––-
1 | 0:00.00 | 9:58.45 | 0 | 44894
2 | 9:58.45 | 13:54.22 | 44895 | 107466
3 | 23:52.67 | 15:04.62 | 107467 | 175328
4 | 38:57.54 | 8:39.61 | 175329 | 214314
5 | 47:37.40 | 12:09.17 | 214315 | 269006
6 | 59:46.57 | 7:03.73 | 269007 | 300804


Track 1

Filename H:\Users\astarte\03. POST\Charles, Agusti\01 Modular I.wav

Pre-gap length 0:00:02.00

Peak level 100.0 %
Extraction speed 2.9 X
Track quality 99.9 %
Copy CRC 94054894
Track not present in AccurateRip database
Copy OK

Track 2

Filename H:\Users\astarte\03. POST\Charles, Agusti\02 Modular II.wav

Peak level 100.0 %
Extraction speed 3.8 X
Track quality 99.9 %
Copy CRC 46AC57DE
Track not present in AccurateRip database
Copy OK

Track 3

Filename H:\Users\astarte\03. POST\Charles, Agusti\03 Sombra Obscura.wav

Peak level 66.4 %
Extraction speed 4.9 X
Track quality 100.0 %
Copy CRC 5CDA4A35
Track not present in AccurateRip database
Copy OK

Track 4

Filename H:\Users\astarte\03. POST\Charles, Agusti\04 Convex I.wav

Peak level 99.9 %
Extraction speed 5.3 X
Track quality 100.0 %
Copy CRC D34FA69B
Track not present in AccurateRip database
Copy OK

Track 5

Filename H:\Users\astarte\03. POST\Charles, Agusti\05 Duo.wav

Peak level 100.0 %
Extraction speed 5.9 X
Track quality 100.0 %
Copy CRC AD42D2D8
Track not present in AccurateRip database
Copy OK

Track 6

Filename H:\Users\astarte\03. POST\Charles, Agusti\06 Particella.wav

Peak level 66.4 %
Extraction speed 5.1 X
Track quality 99.9 %
Copy CRC 3C5E9497
Track not present in AccurateRip database
Copy OK


None of the tracks are present in the AccurateRip database

No errors occurred

End of status report

==== Log checksum C967DCF4EDCE06D82BAB91D32D25915F5AA27EB945552D2941E2EB8AD1C0B189 ====