Tags
Language
Tags

Bonaventura Aliotti - Il trionfo della Morte, Oratorio (1677) - Les Traversées Baroques, Étienne Meyer (2020) {Accent ACC24368}

Posted By: ruskaval
Bonaventura Aliotti - Il trionfo della Morte, Oratorio (1677) - Les Traversées Baroques, Étienne Meyer (2020) {Accent ACC24368}

Bonaventura Aliotti - Il trionfo della Morte, Oratorio (1677) - Les Traversées Baroques, Étienne Meyer (2020) {Accent ACC24368}
XLD rip (secure mode) | FLAC (tracks)+CUE+LOG -> 494 Mb | MP3 @320 -> 229 Mb
Full Artwork @ 300 dpi (jpg) -> 19 Mb | 5% repair rar
© 2020 Accent | ACC 24368
Classical / Baroque / Vocal / Oratorio / Period Instruments

With “Il trionfo della morte” by Bonaventuro Aliotti from 1677, the French ensemble Les Travers es Baroque presents an important example of an early oratorio.

The form of the oratorio developed after the Catholic Church in the Council of Trent (1545-1563) severely restricted the use of music in church services. Some religious congregations then began to perform new forms of music in their prayer and assembly rooms, the “oratorios”.

An important centre for the development of the oratorio or “Dialoghi sacri”, as this musical form of theological approach was called, was Sicily. There Bunaventuro Aliotti grew up and entered the Franciscan Minorite Order, where he received extensive training as organist and conductor. Aliotti created a total of eleven oratorios, but only four of them have survived.

“Il trionfo della morte” revolves around the story of Adam and Eve, who are confronted with temptation, but also with their passion, their torments and their doubts. Aliotti characterises his characters with great inspiration, and the orchestra comments and underlines the plot with short interjections in a varied and colourful way.
Bonaventura Aliotti - Il trionfo della Morte, Oratorio (1677) - Les Traversées Baroques, Étienne Meyer (2020) {Accent ACC24368}

I wonder if Aliotti, the composing Franciscan friar from Palermo, had seen the fresco “Il trionfo della morte” in the Scafani Palace in the city of his birth and early years. Death, furiously mounted on a wild skeletal horse is dishing out arrows and striking down the privileged orders of society – Franciscans included – whilst sparing the common folk and musicians. It is difficult to imagine not, as this eponymous oratorio evokes the wildness and drama, and possibly sympathies, of this striking image from two centuries earlier. It bursts onto the scene with all the bounce of the baroque, and the energy continues unabated throughout – albeit through a spectrum of moods and pace. The particular elaboration of the theme taken by the oratorio is the origin of the triumph of death: the fall of Adam. It allows this two-CD extravaganza to explore every angle and nuance of the battle between reason and passion, hope and regret, good and evil. The characterisations rendered by the singers capture the tensions and vacillations perfectly – it is so wonderful and refreshing to hear performers entirely given over to the projection of the characters’ inner debates and torments, without a hint of staginess. The technical quality of the singing, playing and recording is extremely impressive: sparkling and immediate. I mentioned the energetic and attention-grabbing opening, where against the overall energy are lyrical, repeated falling phrases which presage the forthcoming story, and beautifully played by the outstanding cornettists. Also worthy of note is the end of the prima parte; the Coro di Demoni Furie Feroci – you can imagine! – culminating in a clever musical falling to earth, matter of fact, but shocking. Another is the heart-rending lament of Eve in the realisation of what has just been precipitated. In shades of Ovid’s telling of the Arethusa and Alpheus metamorphosis, she wishes to liquefy herself and disappear, trapped in a cloying whirlpool of circular harmonies from the viols; a metaphor which therefore spans the parallel religious and humanist worlds of Aliotti’s lifetime. I thoroughly recommend this recording to anyone – it is a must-listen of wide appeal.
Bonaventura Aliotti - Il trionfo della Morte, Oratorio (1677) - Les Traversées Baroques, Étienne Meyer (2020) {Accent ACC24368}


Performers:
Les Traversées Baroques
Étienne Meyer
‎- direction

Works on This Recording:

Bonaventura Aliotti - Il trionfo della Morte, Oratorio (1677) - Les Traversées Baroques, Étienne Meyer (2020) {Accent ACC24368}


X Lossless Decoder version 20191004 (152.0)

XLD extraction logfile from 2020-05-03 14:20:20 +0200

Les Traversées Baroques, Meyer / Il trionfo della Morte-Prima Parte

Used drive : hp BD-RE BU20N (revision BU24)
Media type : Pressed CD

Ripper mode : XLD Secure Ripper
Disable audio cache : OK for the drive with a cache less than 1375KiB
Make use of C2 pointers : NO
Read offset correction : 6
Max retry count : 20
Gap status : Analyzed, Appended (except HTOA)

TOC of the extracted CD
Track | Start | Length | Start sector | End sector
––––––––––––––––––––––––––––-
1 | 00:00:00 | 03:15:02 | 0 | 14626
2 | 03:15:02 | 00:57:29 | 14627 | 18930
3 | 04:12:31 | 00:36:56 | 18931 | 21686
4 | 04:49:12 | 00:19:42 | 21687 | 23153
5 | 05:08:54 | 02:52:21 | 23154 | 36074
6 | 08:01:00 | 02:14:23 | 36075 | 46147
7 | 10:15:23 | 01:12:67 | 46148 | 51614
8 | 11:28:15 | 01:26:74 | 51615 | 58138
9 | 12:55:14 | 01:50:22 | 58139 | 66410
10 | 14:45:36 | 01:37:70 | 66411 | 73755
11 | 16:23:31 | 02:31:46 | 73756 | 85126
12 | 18:55:02 | 01:53:25 | 85127 | 93626
13 | 20:48:27 | 03:28:40 | 93627 | 109266
14 | 24:16:67 | 00:15:56 | 109267 | 110447
15 | 24:32:48 | 02:18:61 | 110448 | 120858
16 | 26:51:34 | 01:22:18 | 120859 | 127026
17 | 28:13:52 | 00:15:33 | 127027 | 128184
18 | 28:29:10 | 02:05:15 | 128185 | 137574
19 | 30:34:25 | 00:19:51 | 137575 | 139050
20 | 30:54:01 | 01:05:17 | 139051 | 143942
21 | 31:59:18 | 01:09:38 | 143943 | 149155
22 | 33:08:56 | 00:48:67 | 149156 | 152822
23 | 33:57:48 | 05:14:63 | 152823 | 176435
24 | 39:12:36 | 02:49:38 | 176436 | 189148
25 | 42:01:74 | 02:47:21 | 189149 | 201694
26 | 44:49:20 | 01:13:51 | 201695 | 207220
27 | 46:02:71 | 00:37:55 | 207221 | 210050
28 | 46:40:51 | 01:33:51 | 210051 | 217076
29 | 48:14:27 | 00:22:08 | 217077 | 218734
30 | 48:36:35 | 00:37:57 | 218735 | 221566
31 | 49:14:17 | 00:56:52 | 221567 | 225818

AccurateRip Summary
Disc not found in AccurateRip DB.

All Tracks
Statistics
Read error : 0
Jitter error (maybe fixed) : 0
Retry sector count : 0
Damaged sector count : 0

Track 01
Filename : /Volumes/INTENSO/01 Les Traversées Baroques, Meyer, - Sinfonia.flac
Pre-gap length : 00:02:00

CRC32 hash (test run) : F90E81B9
CRC32 hash : F90E81B9
CRC32 hash (skip zero) : 5005CD28
AccurateRip v1 signature : E9DF4595
AccurateRip v2 signature : 89818D5E
->Track not present in AccurateRip database.
Statistics
Read error : 0
Jitter error (maybe fixed) : 0
Retry sector count : 0
Damaged sector count : 0

Track 02
Filename : /Volumes/INTENSO/02 Les Traversées Baroques, Meyer - Adamo - Qual torbido fantasma.flac

CRC32 hash (test run) : 4AC1143B
CRC32 hash : 4AC1143B
CRC32 hash (skip zero) : 3D9D70D1
AccurateRip v1 signature : 25F5B745
AccurateRip v2 signature : F4DFDD83
->Track not present in AccurateRip database.
Statistics
Read error : 0
Jitter error (maybe fixed) : 0
Retry sector count : 0
Damaged sector count : 0

Track 03
Filename : /Volumes/INTENSO/03 Les Traversées Baroques, Meyer - Sinfonia.flac

CRC32 hash (test run) : 33033E7E
CRC32 hash : 33033E7E
CRC32 hash (skip zero) : 50D4C314
AccurateRip v1 signature : 1B4960CB
AccurateRip v2 signature : C0073A10
->Track not present in AccurateRip database.
Statistics
Read error : 0
Jitter error (maybe fixed) : 0
Retry sector count : 0
Damaged sector count : 0

Track 04
Filename : /Volumes/INTENSO/04 Les Traversées Baroques, Meyer - Adamo - Mà lasso.flac

CRC32 hash (test run) : 40415D33
CRC32 hash : 40415D33
CRC32 hash (skip zero) : 17BC058B
AccurateRip v1 signature : 059A408C
AccurateRip v2 signature : 131F3C8C
->Track not present in AccurateRip database.
Statistics
Read error : 0
Jitter error (maybe fixed) : 0
Retry sector count : 0
Damaged sector count : 0

Track 05
Filename : /Volumes/INTENSO/05 Les Traversées Baroques, Meyer - Eva-Adamo - Vita si son del tuo cuore.flac

CRC32 hash (test run) : 126BFD4B
CRC32 hash : 126BFD4B
CRC32 hash (skip zero) : D4EF5420
AccurateRip v1 signature : A81552AD
AccurateRip v2 signature : E874E23D
->Track not present in AccurateRip database.
Statistics
Read error : 0
Jitter error (maybe fixed) : 0
Retry sector count : 0
Damaged sector count : 0

Track 06
Filename : /Volumes/INTENSO/06 Les Traversées Baroques, Meyer - Adamo - Mà che dissi, mie care pupille.flac

CRC32 hash (test run) : E7FFB4D7
CRC32 hash : E7FFB4D7
CRC32 hash (skip zero) : 5F4DEF6E
AccurateRip v1 signature : 0030DED0
AccurateRip v2 signature : 90CBACB7
->Track not present in AccurateRip database.
Statistics
Read error : 0
Jitter error (maybe fixed) : 0
Retry sector count : 0
Damaged sector count : 0

Track 07
Filename : /Volumes/INTENSO/07 Les Traversées Baroques, Meyer - Eva - Dolce Amore.flac

CRC32 hash (test run) : 53FD3BDD
CRC32 hash : 53FD3BDD
CRC32 hash (skip zero) : 477BFDA4
AccurateRip v1 signature : 7A29549E
AccurateRip v2 signature : 8EF6D85D
->Track not present in AccurateRip database.
Statistics
Read error : 0
Jitter error (maybe fixed) : 0
Retry sector count : 0
Damaged sector count : 0

Track 08
Filename : /Volumes/INTENSO/08 Les Traversées Baroques, Meyer - Eva-Adamo - Che belezza, che vaghezza.flac

CRC32 hash (test run) : 7FBBF46A
CRC32 hash : 7FBBF46A
CRC32 hash (skip zero) : 986FF7A1
AccurateRip v1 signature : 489B1FFD
AccurateRip v2 signature : C2AEEA1E
->Track not present in AccurateRip database.
Statistics
Read error : 0
Jitter error (maybe fixed) : 0
Retry sector count : 0
Damaged sector count : 0

Track 09
Filename : /Volumes/INTENSO/09 Les Traversées Baroques, Meyer - Ragione - Adam, basta.flac

CRC32 hash (test run) : 0B01EA15
CRC32 hash : 0B01EA15
CRC32 hash (skip zero) : EC893930
AccurateRip v1 signature : 21731CA3
AccurateRip v2 signature : E741B4AA
->Track not present in AccurateRip database.
Statistics
Read error : 0
Jitter error (maybe fixed) : 0
Retry sector count : 0
Damaged sector count : 0

Track 10
Filename : /Volumes/INTENSO/10 Les Traversées Baroques, Meyer - Ragione - Sono idee d'un cor presago.flac

CRC32 hash (test run) : B06CB011
CRC32 hash : B06CB011
CRC32 hash (skip zero) : 21AE00CD
AccurateRip v1 signature : 43DBCA48
AccurateRip v2 signature : 686445BB
->Track not present in AccurateRip database.
Statistics
Read error : 0
Jitter error (maybe fixed) : 0
Retry sector count : 0
Damaged sector count : 0

Track 11
Filename : /Volumes/INTENSO/11 Les Traversées Baroques, Meyer - Coro di Virtù - Chi a gli amor nacque dal Cielo.flac

CRC32 hash (test run) : 6B11E66E
CRC32 hash : 6B11E66E
CRC32 hash (skip zero) : 2AC1EE3A
AccurateRip v1 signature : C7F231E0
AccurateRip v2 signature : 2E81A424
->Track not present in AccurateRip database.
Statistics
Read error : 0
Jitter error (maybe fixed) : 0
Retry sector count : 0
Damaged sector count : 0

Track 12
Filename : /Volumes/INTENSO/12 Les Traversées Baroques, Meyer - Ragione-Adamo - Udisti, Adamo.flac

CRC32 hash (test run) : CFF4BA40
CRC32 hash : CFF4BA40
CRC32 hash (skip zero) : 6658E0F2
AccurateRip v1 signature : A17E9612
AccurateRip v2 signature : 37E3371D
->Track not present in AccurateRip database.
Statistics
Read error : 0
Jitter error (maybe fixed) : 0
Retry sector count : 0
Damaged sector count : 0

Track 13
Filename : /Volumes/INTENSO/13 Les Traversées Baroques, Meyer - Ragione - Senza Dio ch'è il vero sole.flac

CRC32 hash (test run) : C3B3BFF6
CRC32 hash : C3B3BFF6
CRC32 hash (skip zero) : 8128C275
AccurateRip v1 signature : D059224F
AccurateRip v2 signature : D5D7B167
->Track not present in AccurateRip database.
Statistics
Read error : 0
Jitter error (maybe fixed) : 0
Retry sector count : 0
Damaged sector count : 0

Track 14
Filename : /Volumes/INTENSO/14 Les Traversées Baroques, Meyer - Morte - Al sembiante, alla falce.flac

CRC32 hash (test run) : 2C0003A1
CRC32 hash : 2C0003A1
CRC32 hash (skip zero) : B5602FD9
AccurateRip v1 signature : 745237A5
AccurateRip v2 signature : E6007919
->Track not present in AccurateRip database.
Statistics
Read error : 0
Jitter error (maybe fixed) : 0
Retry sector count : 0
Damaged sector count : 0

Track 15
Filename : /Volumes/INTENSO/15 Les Traversées Baroques, Meyer - Morte - Mà che val la mia possanza.flac

CRC32 hash (test run) : ACD29ACC
CRC32 hash : ACD29ACC
CRC32 hash (skip zero) : E89E6982
AccurateRip v1 signature : 01A45EBD
AccurateRip v2 signature : AF846C91
->Track not present in AccurateRip database.
Statistics
Read error : 0
Jitter error (maybe fixed) : 0
Retry sector count : 0
Damaged sector count : 0

Track 16
Filename : /Volumes/INTENSO/16 Les Traversées Baroques, Meyer - Morte-Senso - Nel terren Paradiso.flac

CRC32 hash (test run) : 4A56FCD3
CRC32 hash : 4A56FCD3
CRC32 hash (skip zero) : 88414F99
AccurateRip v1 signature : A340B838
AccurateRip v2 signature : 10779E1D
->Track not present in AccurateRip database.
Statistics
Read error : 0
Jitter error (maybe fixed) : 0
Retry sector count : 0
Damaged sector count : 0

Track 17
Filename : /Volumes/INTENSO/17 Les Traversées Baroques, Meyer - Lucifero - Che bei discorsi, Amici.flac

CRC32 hash (test run) : 0BFAB3D5
CRC32 hash : 0BFAB3D5
CRC32 hash (skip zero) : 05E0A881
AccurateRip v1 signature : A3C832F8
AccurateRip v2 signature : 0CB7BD09
->Track not present in AccurateRip database.
Statistics
Read error : 0
Jitter error (maybe fixed) : 0
Retry sector count : 0
Damaged sector count : 0

Track 18
Filename : /Volumes/INTENSO/18 Les Traversées Baroques, Meyer - Morte-Senso - In meste querele.flac

CRC32 hash (test run) : 25C490D0
CRC32 hash : 25C490D0
CRC32 hash (skip zero) : FEFA4E79
AccurateRip v1 signature : 9A368661
AccurateRip v2 signature : EFB9F3DD
->Track not present in AccurateRip database.
Statistics
Read error : 0
Jitter error (maybe fixed) : 0
Retry sector count : 0
Damaged sector count : 0

Track 19
Filename : /Volumes/INTENSO/19 Les Traversées Baroques, Meyer - Lucifero - Dunque un uomo caduco.flac

CRC32 hash (test run) : DA20AA30
CRC32 hash : DA20AA30
CRC32 hash (skip zero) : 47673A45
AccurateRip v1 signature : 08EBBE01
AccurateRip v2 signature : ECEC6ACC
->Track not present in AccurateRip database.
Statistics
Read error : 0
Jitter error (maybe fixed) : 0
Retry sector count : 0
Damaged sector count : 0

Track 20
Filename : /Volumes/INTENSO/20 Les Traversées Baroques, Meyer - Lucifero - Furie terribili.flac

CRC32 hash (test run) : D1DF6CB6
CRC32 hash : D1DF6CB6
CRC32 hash (skip zero) : 7EA3C368
AccurateRip v1 signature : 1C87B43D
AccurateRip v2 signature : 8D6061B5
->Track not present in AccurateRip database.
Statistics
Read error : 0
Jitter error (maybe fixed) : 0
Retry sector count : 0
Damaged sector count : 0

Track 21
Filename : /Volumes/INTENSO/21 Les Traversées Baroques, Meyer - Lucifero - Si dilegui il Ciel in lampo.flac

CRC32 hash (test run) : C434C4B3
CRC32 hash : C434C4B3
CRC32 hash (skip zero) : 824B0937
AccurateRip v1 signature : FA7C81EC
AccurateRip v2 signature : CE72C1F9
->Track not present in AccurateRip database.
Statistics
Read error : 0
Jitter error (maybe fixed) : 0
Retry sector count : 0
Damaged sector count : 0

Track 22
Filename : /Volumes/INTENSO/22 Les Traversées Baroques, Meyer - Lucifero - Sotto spoglia d'un serpe.flac

CRC32 hash (test run) : 8B9F0E73
CRC32 hash : 8B9F0E73
CRC32 hash (skip zero) : 0C3430D6
AccurateRip v1 signature : 8116B683
AccurateRip v2 signature : 8E57BA67
->Track not present in AccurateRip database.
Statistics
Read error : 0
Jitter error (maybe fixed) : 0
Retry sector count : 0
Damaged sector count : 0

Track 23
Filename : /Volumes/INTENSO/23 Les Traversées Baroques, Meyer - Eva - Sospendi, mio cuore.flac

CRC32 hash (test run) : DC8C8909
CRC32 hash : DC8C8909
CRC32 hash (skip zero) : 46E35CC1
AccurateRip v1 signature : 8330C451
AccurateRip v2 signature : 98B18FF3
->Track not present in AccurateRip database.
Statistics
Read error : 0
Jitter error (maybe fixed) : 0
Retry sector count : 0
Damaged sector count : 0

Track 24
Filename : /Volumes/INTENSO/24 Les Traversées Baroques, Meyer - Lucifero-Eva - Eva, Eva - Chi le mie voci arresta.flac

CRC32 hash (test run) : F68B6113
CRC32 hash : F68B6113
CRC32 hash (skip zero) : 4204A29D
AccurateRip v1 signature : 39F2EF54
AccurateRip v2 signature : 38BA34E3
->Track not present in AccurateRip database.
Statistics
Read error : 0
Jitter error (maybe fixed) : 0
Retry sector count : 0
Damaged sector count : 0

Track 25
Filename : /Volumes/INTENSO/25 Les Traversées Baroques, Meyer - Eva - Caro legno.flac

CRC32 hash (test run) : 75D466AF
CRC32 hash : 75D466AF
CRC32 hash (skip zero) : 55B54253
AccurateRip v1 signature : 19107925
AccurateRip v2 signature : 0B33206F
->Track not present in AccurateRip database.
Statistics
Read error : 0
Jitter error (maybe fixed) : 0
Retry sector count : 0
Damaged sector count : 0

Track 26
Filename : /Volumes/INTENSO/26 Les Traversées Baroques, Meyer - Eva - Miei pensieri, e che sarà.flac

CRC32 hash (test run) : A92971D9
CRC32 hash : A92971D9
CRC32 hash (skip zero) : 901E3BD2
AccurateRip v1 signature : B1209738
AccurateRip v2 signature : 7D833DBF
->Track not present in AccurateRip database.
Statistics
Read error : 0
Jitter error (maybe fixed) : 0
Retry sector count : 0
Damaged sector count : 0

Track 27
Filename : /Volumes/INTENSO/27 Les Traversées Baroques, Meyer - Eva - Si, non si tardi piu.flac

CRC32 hash (test run) : B83C9D67
CRC32 hash : B83C9D67
CRC32 hash (skip zero) : C1C960FF
AccurateRip v1 signature : 940841FA
AccurateRip v2 signature : 1E811830
->Track not present in AccurateRip database.
Statistics
Read error : 0
Jitter error (maybe fixed) : 0
Retry sector count : 0
Damaged sector count : 0

Track 28
Filename : /Volumes/INTENSO/28 Les Traversées Baroques, Meyer - Ragione-Coro di Demoni - S'Eva già cade.flac

CRC32 hash (test run) : F4669AF3
CRC32 hash : F4669AF3
CRC32 hash (skip zero) : 4C935132
AccurateRip v1 signature : 4F6800AC
AccurateRip v2 signature : 1D5896B3
->Track not present in AccurateRip database.
Statistics
Read error : 0
Jitter error (maybe fixed) : 0
Retry sector count : 0
Damaged sector count : 0

Track 29
Filename : /Volumes/INTENSO/29 Les Traversées Baroques, Meyer - Lucifero - Al mio gran Potere.flac

CRC32 hash (test run) : 4BC9FE42
CRC32 hash : 4BC9FE42
CRC32 hash (skip zero) : 8DCFD7CC
AccurateRip v1 signature : 0A4D4BED
AccurateRip v2 signature : 59C970BB
->Track not present in AccurateRip database.
Statistics
Read error : 0
Jitter error (maybe fixed) : 0
Retry sector count : 0
Damaged sector count : 0

Track 30
Filename : /Volumes/INTENSO/30 Les Traversées Baroques, Meyer - Ragione-Senso - Sì, sì resisterò.flac

CRC32 hash (test run) : 8A6E1762
CRC32 hash : 8A6E1762
CRC32 hash (skip zero) : 6092BA58
AccurateRip v1 signature : 36261F4E
AccurateRip v2 signature : 3EEE2A2E
->Track not present in AccurateRip database.
Statistics
Read error : 0
Jitter error (maybe fixed) : 0
Retry sector count : 0
Damaged sector count : 0

Track 31
Filename : /Volumes/INTENSO/31 Les Traversées Baroques, Meyer - Coro di Demoni : Furie feroci.flac

CRC32 hash (test run) : 18E0195D
CRC32 hash : 18E0195D
CRC32 hash (skip zero) : 8B8D15D5
AccurateRip v1 signature : 6186069A
AccurateRip v2 signature : B63743F4
->Track not present in AccurateRip database.
Statistics
Read error : 0
Jitter error (maybe fixed) : 0
Retry sector count : 0
Damaged sector count : 0

No errors occurred

End of status report

––-BEGIN XLD SIGNATURE––-
A5TumZQlUA_n3hPxTBRvEODlNRWaXFgAfHYjq_1bcqmMS4zLw501kk9KLzqkvpvjIWRsqDU3jsevHMPYA_GEXJJOJRUpT44mU_Bia.S
––-END XLD SIGNATURE––-
X Lossless Decoder version 20191004 (152.0)

XLD extraction logfile from 2020-05-03 15:09:42 +0200

Les Traversées Baroques, Meyer / Il trionfo della Morte -Seconda Parte

Used drive : hp BD-RE BU20N (revision BU24)
Media type : Pressed CD

Ripper mode : XLD Secure Ripper
Disable audio cache : OK for the drive with a cache less than 1375KiB
Make use of C2 pointers : NO
Read offset correction : 6
Max retry count : 20
Gap status : Analyzed, Appended (except HTOA)

TOC of the extracted CD
Track | Start | Length | Start sector | End sector
––––––––––––––––––––––––––––-
1 | 00:00:00 | 04:14:71 | 0 | 19120
2 | 04:14:71 | 00:34:49 | 19121 | 21719
3 | 04:49:45 | 02:10:51 | 21720 | 31520
4 | 07:00:21 | 00:18:13 | 31521 | 32883
5 | 07:18:34 | 02:31:55 | 32884 | 44263
6 | 09:50:14 | 00:11:27 | 44264 | 45115
7 | 10:01:41 | 00:45:57 | 45116 | 48547
8 | 10:47:23 | 01:12:60 | 48548 | 54007
9 | 12:00:08 | 01:30:12 | 54008 | 60769
10 | 13:30:20 | 00:57:35 | 60770 | 65079
11 | 14:27:55 | 00:35:44 | 65080 | 67748
12 | 15:03:24 | 06:39:38 | 67749 | 97711
13 | 21:42:62 | 01:07:04 | 97712 | 102740
14 | 22:49:66 | 01:29:00 | 102741 | 109415
15 | 24:18:66 | 01:32:50 | 109416 | 116365
16 | 25:51:41 | 01:37:44 | 116366 | 123684
17 | 27:29:10 | 01:25:51 | 123685 | 130110
18 | 28:54:61 | 01:48:32 | 130111 | 138242
19 | 30:43:18 | 01:17:66 | 138243 | 144083
20 | 32:01:09 | 01:09:45 | 144084 | 149303
21 | 33:10:54 | 00:54:60 | 149304 | 153413
22 | 34:05:39 | 00:14:13 | 153414 | 154476
23 | 34:19:52 | 01:30:62 | 154477 | 161288
24 | 35:50:39 | 01:03:68 | 161289 | 166081
25 | 36:54:32 | 00:23:23 | 166082 | 167829
26 | 37:17:55 | 00:09:14 | 167830 | 168518
27 | 37:26:69 | 02:16:36 | 168519 | 178754
28 | 39:43:30 | 01:19:20 | 178755 | 184699
29 | 41:02:50 | 03:34:49 | 184700 | 200798

AccurateRip Summary
Disc not found in AccurateRip DB.

All Tracks
Statistics
Read error : 0
Jitter error (maybe fixed) : 0
Retry sector count : 0
Damaged sector count : 0

Track 01
Filename : /Volumes/INTENSO/01 Les Traversées Baroques, Meyer - Sinfonia-Morte-Senso - Al suon di più Trombe.flac
Pre-gap length : 00:02:00

CRC32 hash (test run) : 37225D20
CRC32 hash : 37225D20
CRC32 hash (skip zero) : 7BEA4C19
AccurateRip v1 signature : 2CF8B887
AccurateRip v2 signature : AA4833BB
->Track not present in AccurateRip database.
Statistics
Read error : 0
Jitter error (maybe fixed) : 0
Retry sector count : 0
Damaged sector count : 0

Track 02
Filename : /Volumes/INTENSO/02 Les Traversées Baroques, Meyer - Eva - Già del Pomo vietato.flac

CRC32 hash (test run) : 560723DB
CRC32 hash : 560723DB
CRC32 hash (skip zero) : 95762544
AccurateRip v1 signature : F7A2D883
AccurateRip v2 signature : BB103065
->Track not present in AccurateRip database.
Statistics
Read error : 0
Jitter error (maybe fixed) : 0
Retry sector count : 0
Damaged sector count : 0

Track 03
Filename : /Volumes/INTENSO/03 Les Traversées Baroques, Meyer - Eva - Dolce Amor.flac

CRC32 hash (test run) : BACABACC
CRC32 hash : BACABACC
CRC32 hash (skip zero) : AD2ED965
AccurateRip v1 signature : F06F35AA
AccurateRip v2 signature : 8BB0534F
->Track not present in AccurateRip database.
Statistics
Read error : 0
Jitter error (maybe fixed) : 0
Retry sector count : 0
Damaged sector count : 0

Track 04
Filename : /Volumes/INTENSO/04 Les Traversées Baroques, Meyer - Adamo - Qual'infida speranza.flac

CRC32 hash (test run) : 79F5A4B5
CRC32 hash : 79F5A4B5
CRC32 hash (skip zero) : F6FE01E5
AccurateRip v1 signature : A6F9309D
AccurateRip v2 signature : 41A27BA6
->Track not present in AccurateRip database.
Statistics
Read error : 0
Jitter error (maybe fixed) : 0
Retry sector count : 0
Damaged sector count : 0

Track 05
Filename : /Volumes/INTENSO/05 Les Traversées Baroques, Meyer - Eva - Quel nume, che lume.flac

CRC32 hash (test run) : 0E100014
CRC32 hash : 0E100014
CRC32 hash (skip zero) : FCC93C18
AccurateRip v1 signature : 1C47CB4A
AccurateRip v2 signature : 7BE8A0FD
->Track not present in AccurateRip database.
Statistics
Read error : 0
Jitter error (maybe fixed) : 0
Retry sector count : 0
Damaged sector count : 0

Track 06
Filename : /Volumes/INTENSO/06 Les Traversées Baroques, Meyer - Adamo - Eva frena gli accenti.flac

CRC32 hash (test run) : 6EB24C35
CRC32 hash : 6EB24C35
CRC32 hash (skip zero) : 1AB77725
AccurateRip v1 signature : 0B520255
AccurateRip v2 signature : AFF4B85A
->Track not present in AccurateRip database.
Statistics
Read error : 0
Jitter error (maybe fixed) : 0
Retry sector count : 0
Damaged sector count : 0

Track 07
Filename : /Volumes/INTENSO/07 Les Traversées Baroques, Meyer - Eva - Oh Dio.flac

CRC32 hash (test run) : 214C68A9
CRC32 hash : 214C68A9
CRC32 hash (skip zero) : EB006E1D
AccurateRip v1 signature : 98240A4B
AccurateRip v2 signature : 4B2E03D4
->Track not present in AccurateRip database.
Statistics
Read error : 0
Jitter error (maybe fixed) : 0
Retry sector count : 0
Damaged sector count : 0

Track 08
Filename : /Volumes/INTENSO/08 Les Traversées Baroques, Meyer - Ragione - Che fai, misero Adamo.flac

CRC32 hash (test run) : 07BE5A9A
CRC32 hash : 07BE5A9A
CRC32 hash (skip zero) : AD817433
AccurateRip v1 signature : 1041A417
AccurateRip v2 signature : BD84CA06
->Track not present in AccurateRip database.
Statistics
Read error : 0
Jitter error (maybe fixed) : 0
Retry sector count : 0
Damaged sector count : 0

Track 09
Filename : /Volumes/INTENSO/09 Les Traversées Baroques, Meyer - Ragione - Che non puole.flac

CRC32 hash (test run) : 84133E6B
CRC32 hash : 84133E6B
CRC32 hash (skip zero) : 35EF0CB1
AccurateRip v1 signature : D7628417
AccurateRip v2 signature : 1F5259D2
->Track not present in AccurateRip database.
Statistics
Read error : 0
Jitter error (maybe fixed) : 0
Retry sector count : 0
Damaged sector count : 0

Track 10
Filename : /Volumes/INTENSO/10 Les Traversées Baroques, Meyer - Adamo-Eva - Oh quanto m'innamora.flac

CRC32 hash (test run) : C2BBC4F7
CRC32 hash : C2BBC4F7
CRC32 hash (skip zero) : 10B532E3
AccurateRip v1 signature : 93858EF7
AccurateRip v2 signature : C77A5AA8
->Track not present in AccurateRip database.
Statistics
Read error : 0
Jitter error (maybe fixed) : 0
Retry sector count : 0
Damaged sector count : 0

Track 11
Filename : /Volumes/INTENSO/11 Les Traversées Baroques, Meyer - Adamo - Taci dico non più.flac

CRC32 hash (test run) : 461CBC0E
CRC32 hash : 461CBC0E
CRC32 hash (skip zero) : 3D851F9A
AccurateRip v1 signature : 7A1AA09A
AccurateRip v2 signature : F54A7309
->Track not present in AccurateRip database.
Statistics
Read error : 0
Jitter error (maybe fixed) : 0
Retry sector count : 0
Damaged sector count : 0

Track 12
Filename : /Volumes/INTENSO/12 Les Traversées Baroques, Meyer - Eva - Discioglietevi, dileguatevi.flac

CRC32 hash (test run) : F5E70652
CRC32 hash : F5E70652
CRC32 hash (skip zero) : 02B3D749
AccurateRip v1 signature : 65D0744D
AccurateRip v2 signature : E8D2AEE9
->Track not present in AccurateRip database.
Statistics
Read error : 0
Jitter error (maybe fixed) : 0
Retry sector count : 0
Damaged sector count : 0

Track 13
Filename : /Volumes/INTENSO/13 Les Traversées Baroques, Meyer - Adamo - Più non si può resistere.flac

CRC32 hash (test run) : 4CBF8803
CRC32 hash : 4CBF8803
CRC32 hash (skip zero) : 9AF37A6A
AccurateRip v1 signature : 7DD9929F
AccurateRip v2 signature : 6B9F7371
->Track not present in AccurateRip database.
Statistics
Read error : 0
Jitter error (maybe fixed) : 0
Retry sector count : 0
Damaged sector count : 0

Track 14
Filename : /Volumes/INTENSO/14 Les Traversées Baroques, Meyer - Adamo - Son già pronto.flac

CRC32 hash (test run) : DDE62A14
CRC32 hash : DDE62A14
CRC32 hash (skip zero) : 20E39B9B
AccurateRip v1 signature : 691BF023
AccurateRip v2 signature : C00BB5E7
->Track not present in AccurateRip database.
Statistics
Read error : 0
Jitter error (maybe fixed) : 0
Retry sector count : 0
Damaged sector count : 0

Track 15
Filename : /Volumes/INTENSO/15 Les Traversées Baroques, Meyer - Eva - Prendi, prendi.flac

CRC32 hash (test run) : 64866C58
CRC32 hash : 64866C58
CRC32 hash (skip zero) : 962071D4
AccurateRip v1 signature : 9079D47D
AccurateRip v2 signature : 4976B4C3
->Track not present in AccurateRip database.
Statistics
Read error : 0
Jitter error (maybe fixed) : 0
Retry sector count : 0
Damaged sector count : 0

Track 16
Filename : /Volumes/INTENSO/16 Les Traversées Baroques, Meyer - Coro d'Angeli - Cadesti, oh Dio.flac

CRC32 hash (test run) : E1E8C333
CRC32 hash : E1E8C333
CRC32 hash (skip zero) : 03E15188
AccurateRip v1 signature : 18E52400
AccurateRip v2 signature : 83339FDD
->Track not present in AccurateRip database.
Statistics
Read error : 0
Jitter error (maybe fixed) : 0
Retry sector count : 0
Damaged sector count : 0

Track 17
Filename : /Volumes/INTENSO/17 Les Traversées Baroques, Meyer - Iddio - Adam rubelle indegno.flac

CRC32 hash (test run) : BB4A3446
CRC32 hash : BB4A3446
CRC32 hash (skip zero) : 00AFDA59
AccurateRip v1 signature : E54E29DA
AccurateRip v2 signature : 27FF861B
->Track not present in AccurateRip database.
Statistics
Read error : 0
Jitter error (maybe fixed) : 0
Retry sector count : 0
Damaged sector count : 0

Track 18
Filename : /Volumes/INTENSO/18 Les Traversées Baroques, Meyer - Adamo-Iddio - Adamo, dico, ove sei.flac

CRC32 hash (test run) : 623338A6
CRC32 hash : 623338A6
CRC32 hash (skip zero) : 08E9D73E
AccurateRip v1 signature : 64AA2446
AccurateRip v2 signature : 0E4E16D6
->Track not present in AccurateRip database.
Statistics
Read error : 0
Jitter error (maybe fixed) : 0
Retry sector count : 0
Damaged sector count : 0

Track 19
Filename : /Volumes/INTENSO/19 Les Traversées Baroques, Meyer - Eva - Signor, se contro Tè.flac

CRC32 hash (test run) : B7CCC03C
CRC32 hash : B7CCC03C
CRC32 hash (skip zero) : C4463A16
AccurateRip v1 signature : 49012012
AccurateRip v2 signature : F2BCF330
->Track not present in AccurateRip database.
Statistics
Read error : 0
Jitter error (maybe fixed) : 0
Retry sector count : 0
Damaged sector count : 0

Track 20
Filename : /Volumes/INTENSO/20 Les Traversées Baroques, Meyer - Iddio - Pena al serpe rubelle.flac

CRC32 hash (test run) : EDD8A227
CRC32 hash : EDD8A227
CRC32 hash (skip zero) : B2F35492
AccurateRip v1 signature : F3F4E3A9
AccurateRip v2 signature : 69D5463D
->Track not present in AccurateRip database.
Statistics
Read error : 0
Jitter error (maybe fixed) : 0
Retry sector count : 0
Damaged sector count : 0

Track 21
Filename : /Volumes/INTENSO/21 Les Traversées Baroques, Meyer - Iddio - Frà dolori, frà martori.flac

CRC32 hash (test run) : 0AD48C09
CRC32 hash : 0AD48C09
CRC32 hash (skip zero) : F0C3CC71
AccurateRip v1 signature : 6014D34B
AccurateRip v2 signature : E9F15B16
->Track not present in AccurateRip database.
Statistics
Read error : 0
Jitter error (maybe fixed) : 0
Retry sector count : 0
Damaged sector count : 0

Track 22
Filename : /Volumes/INTENSO/22 Les Traversées Baroques, Meyer - Iddio - Gite in braccio alla morte.flac

CRC32 hash (test run) : DEDAEB53
CRC32 hash : DEDAEB53
CRC32 hash (skip zero) : 7E3E3FE9
AccurateRip v1 signature : 825C4322
AccurateRip v2 signature : 38830557
->Track not present in AccurateRip database.
Statistics
Read error : 0
Jitter error (maybe fixed) : 0
Retry sector count : 0
Damaged sector count : 0

Track 23
Filename : /Volumes/INTENSO/23 Les Traversées Baroques, Meyer - Morte - Hora sì del Mondo intero.flac

CRC32 hash (test run) : 3D2144DA
CRC32 hash : 3D2144DA
CRC32 hash (skip zero) : CB97D38D
AccurateRip v1 signature : 68712499
AccurateRip v2 signature : F7D504E3
->Track not present in AccurateRip database.
Statistics
Read error : 0
Jitter error (maybe fixed) : 0
Retry sector count : 0
Damaged sector count : 0

Track 24
Filename : /Volumes/INTENSO/24 Les Traversées Baroques, Meyer - Senso - Deh cingetemi le tempia.flac

CRC32 hash (test run) : 7DEDA99E
CRC32 hash : 7DEDA99E
CRC32 hash (skip zero) : E8093514
AccurateRip v1 signature : E36CD00F
AccurateRip v2 signature : A51B8159
->Track not present in AccurateRip database.
Statistics
Read error : 0
Jitter error (maybe fixed) : 0
Retry sector count : 0
Damaged sector count : 0

Track 25
Filename : /Volumes/INTENSO/25 Les Traversées Baroques, Meyer - Adamo-Ragione - Oh qual nel petto mio.flac

CRC32 hash (test run) : A26B9D50
CRC32 hash : A26B9D50
CRC32 hash (skip zero) : 8E17D1F8
AccurateRip v1 signature : 1181395D
AccurateRip v2 signature : 844A4B9E
->Track not present in AccurateRip database.
Statistics
Read error : 0
Jitter error (maybe fixed) : 0
Retry sector count : 0
Damaged sector count : 0

Track 26
Filename : /Volumes/INTENSO/26 Les Traversées Baroques, Meyer - Morte-Senso - Legge è di chi peccò.flac

CRC32 hash (test run) : EDDE578B
CRC32 hash : EDDE578B
CRC32 hash (skip zero) : 7B53D2FF
AccurateRip v1 signature : 633E563E
AccurateRip v2 signature : D79F55A9
->Track not present in AccurateRip database.
Statistics
Read error : 0
Jitter error (maybe fixed) : 0
Retry sector count : 0
Damaged sector count : 0

Track 27
Filename : /Volumes/INTENSO/27 Les Traversées Baroques, Meyer - Coro - Pietà Nume amoroso.flac

CRC32 hash (test run) : F572FA1F
CRC32 hash : F572FA1F
CRC32 hash (skip zero) : 96B26B89
AccurateRip v1 signature : 7EB312EC
AccurateRip v2 signature : 1CD091C3
->Track not present in AccurateRip database.
Statistics
Read error : 0
Jitter error (maybe fixed) : 0
Retry sector count : 0
Damaged sector count : 0

Track 28
Filename : /Volumes/INTENSO/28 Les Traversées Baroques, Meyer - Iddio - Anco frà le vendette.flac

CRC32 hash (test run) : 003DE850
CRC32 hash : 003DE850
CRC32 hash (skip zero) : BA7A98D5
AccurateRip v1 signature : A3E8C482
AccurateRip v2 signature : A42B9F98
->Track not present in AccurateRip database.
Statistics
Read error : 0
Jitter error (maybe fixed) : 0
Retry sector count : 0
Damaged sector count : 0

Track 29
Filename : /Volumes/INTENSO/29 Les Traversées Baroques, Meyer - Coro - Sperate Mortali.flac

CRC32 hash (test run) : 2F5967C3
CRC32 hash : 2F5967C3
CRC32 hash (skip zero) : 230F2D66
AccurateRip v1 signature : 717304E7
AccurateRip v2 signature : 322A1669
->Track not present in AccurateRip database.
Statistics
Read error : 0
Jitter error (maybe fixed) : 0
Retry sector count : 0
Damaged sector count : 0

No errors occurred

End of status report

––-BEGIN XLD SIGNATURE––-
_mGHD57TiNZ6_umKmZZ6_y0Vg4xGQupkFXu.mS4ON6hvQGf.CKj8Q5ocSR_EdgMEYLhLJtzfYQS67mTnVgtpk_3oYWlNxNZMMW0VrBC
––-END XLD SIGNATURE––-


Bonaventura Aliotti - Il trionfo della Morte, Oratorio (1677) - Les Traversées Baroques, Étienne Meyer (2020) {Accent ACC24368}



===