Tags
Language
Tags

The Allman Brothers Band - Oakdale Theatre, Wallingford, CT - August 22, 2004 (2004) {3CD Set Peach Records}

Posted By:
The Allman Brothers Band - Oakdale Theatre, Wallingford, CT - August 22, 2004 (2004) {3CD Set Peach Records}

The Allman Brothers Band - Oakdale Theatre, Wallingford, CT - August 22, 2004 (2004) {3CD Set Peach Records}
EAC rip (secure mode) | FLAC (tracks)+CUE+LOG -> 1.13 Gb | MP3 @320 -> 413 Mb
Full Artwork @ 600 dpi (jpg) -> 49 Mb | 5% repair rar
© 2004 Peach Records Associates LLC | n/a
Rock / Jam Band / Blues Rock / Southern Rock

The show was Great! This is my favorite line-up so far for the band- but I always say that. Greg looked and sounded super- singing and playing. He is a classic blues rock musician. Butch, Jaimoe and Marc are the best! Rico sat in for Butch on one tune as well. Way to go Rico… Marc has settled in solid with the band. Tazzz… Oteil had some crazy sounds coming out after his scat solo. Love the thunder of the bass and drums! Derek looks relaxed when he plays with the ABB.

Smiling and carrying on with Warren. Much different than when he is with DTB. Maybe the birth of his daughter has put the smile on his face! Congratulations! He fits the spirit of the band wonderfully. Warren is a master. Powerful and tight. He got us soaring several times through the evening. It always seems to end too quickly though. Maybe its my imagination. The tone of his guitar rattles and soothes my bones at the same time. I got the Instant Live recording but haven't listened yet. Got to hand it to these guys for keeping it going fresh for so long. Thanks Brothers! -allmanbrothersband.com, Marty B.
The Allman Brothers Band - Oakdale Theatre, Wallingford, CT - August 22, 2004 (2004) {3CD Set Peach Records}


Personnel:
Gregg Almann - Hammond B-3 organ, piano, & lead vocals
Jaimoe - drums
Butch Trucks - drums
Warren Haynes - lead & slide guitar (right side), lead & background vocals
Marc Quinones - congas & percussion, background vocals
Oteil Burbridge - bass
Derek Trucks - lead & slide guitar (left side)

tracklist:
CD1

01. You Don't Love Me
02. Statesboro Blues
03. Wasted Words
04. Who's Been Talking
05. Midnight Rider
06. Hot 'Lanta
07. Old Before My Time
08. Woman Across The River
09. No One To Run With

The Allman Brothers Band - Oakdale Theatre, Wallingford, CT - August 22, 2004 (2004) {3CD Set Peach Records}


CD2
01. Revival
02. Come And Go Blues
03. Desdemona
04. Good Morning Little Schoolgirl
05. High Cost Of Low Living
06. Hoochie Coochie Man

The Allman Brothers Band - Oakdale Theatre, Wallingford, CT - August 22, 2004 (2004) {3CD Set Peach Records}


CD3
01. Dreams
02. Instrumental Illness
03. Southbound

The Allman Brothers Band - Oakdale Theatre, Wallingford, CT - August 22, 2004 (2004) {3CD Set Peach Records}


Exact Audio Copy V0.99 prebeta 4 from 23. January 2008

EAC extraction logfile from 28. November 2009, 16:45

The Allman Brothers Band / Oakdale Theatre August 22 2004, Disc 1

Used drive : PIONEER DVD+-RW DR-K17Y Adapter: 0 ID: 0

Read mode : Secure
Utilize accurate stream : Yes
Defeat audio cache : Yes
Make use of C2 pointers : No

Read offset correction : 48
Overread into Lead-In and Lead-Out : No
Fill up missing offset samples with silence : Yes
Delete leading and trailing silent blocks : No
Null samples used in CRC calculations : Yes
Used interface : Native Win32 interface for Win NT & 2000
Gap handling : Appended to previous track

Used output format : User Defined Encoder
Selected bitrate : 768 kBit/s
Quality : High
Add ID3 tag : No
Command line compressor : C:\Program Files\Exact Audio Copy\FLAC\FLAC.EXE
Additional command line options : -8 -V -T "ARTIST=%a" -T "TITLE=%t" -T "ALBUM=%g" -T "DATE=%y" -T "TRACKNUMBER=%n" -T "GENRE=%m" -T "COMMENT=EAC FLAC -8" %s


TOC of the extracted CD

Track | Start | Length | Start sector | End sector
––––––––––––––––––––––––––––-
1 | 0:00.00 | 10:51.05 | 0 | 48829
2 | 10:51.05 | 6:00.47 | 48830 | 75876
3 | 16:51.52 | 7:23.43 | 75877 | 109144
4 | 24:15.20 | 8:10.61 | 109145 | 145955
5 | 32:26.06 | 3:28.47 | 145956 | 161602
6 | 35:54.53 | 6:01.47 | 161603 | 188724
7 | 41:56.25 | 6:35.22 | 188725 | 218371
8 | 48:31.47 | 7:30.00 | 218372 | 252121
9 | 56:01.47 | 6:08.73 | 252122 | 279794


Track 1

Filename C:\UPS\The Allman Brothers Band - Oakdale Theatre August 22 2004 (2004) [FLAC]\Oakdale Theatre August 22 2004, Disc 1\01 - You Don't Love Me.wav

Pre-gap length 0:00:02.00

Peak level 100.0 %
Track quality 100.0 %
Test CRC DA8AE3D6
Copy CRC DA8AE3D6
Track not present in AccurateRip database
Copy OK

Track 2

Filename C:\UPS\The Allman Brothers Band - Oakdale Theatre August 22 2004 (2004) [FLAC]\Oakdale Theatre August 22 2004, Disc 1\02 - Statesboro Blues.wav

Peak level 100.0 %
Track quality 99.9 %
Test CRC CEF0DC76
Copy CRC CEF0DC76
Track not present in AccurateRip database
Copy OK

Track 3

Filename C:\UPS\The Allman Brothers Band - Oakdale Theatre August 22 2004 (2004) [FLAC]\Oakdale Theatre August 22 2004, Disc 1\03 - Wasted Words.wav

Peak level 100.0 %
Track quality 100.0 %
Test CRC 126815E3
Copy CRC 126815E3
Track not present in AccurateRip database
Copy OK

Track 4

Filename C:\UPS\The Allman Brothers Band - Oakdale Theatre August 22 2004 (2004) [FLAC]\Oakdale Theatre August 22 2004, Disc 1\04 - Who's Been Talking.wav

Peak level 100.0 %
Track quality 100.0 %
Test CRC F923EC92
Copy CRC F923EC92
Track not present in AccurateRip database
Copy OK

Track 5

Filename C:\UPS\The Allman Brothers Band - Oakdale Theatre August 22 2004 (2004) [FLAC]\Oakdale Theatre August 22 2004, Disc 1\05 - Midnight Rider.wav

Peak level 100.0 %
Track quality 100.0 %
Test CRC E4A7DB7A
Copy CRC E4A7DB7A
Track not present in AccurateRip database
Copy OK

Track 6

Filename C:\UPS\The Allman Brothers Band - Oakdale Theatre August 22 2004 (2004) [FLAC]\Oakdale Theatre August 22 2004, Disc 1\06 - Hot 'Lanta.wav

Peak level 100.0 %
Track quality 99.9 %
Test CRC A81ADE7C
Copy CRC A81ADE7C
Track not present in AccurateRip database
Copy OK

Track 7

Filename C:\UPS\The Allman Brothers Band - Oakdale Theatre August 22 2004 (2004) [FLAC]\Oakdale Theatre August 22 2004, Disc 1\07 - Old Before My Time.wav

Peak level 100.0 %
Track quality 100.0 %
Test CRC 427955F3
Copy CRC 427955F3
Track not present in AccurateRip database
Copy OK

Track 8

Filename C:\UPS\The Allman Brothers Band - Oakdale Theatre August 22 2004 (2004) [FLAC]\Oakdale Theatre August 22 2004, Disc 1\08 - Woman Across The River.wav

Peak level 100.0 %
Track quality 100.0 %
Test CRC 0D5506C7
Copy CRC 0D5506C7
Track not present in AccurateRip database
Copy OK

Track 9

Filename C:\UPS\The Allman Brothers Band - Oakdale Theatre August 22 2004 (2004) [FLAC]\Oakdale Theatre August 22 2004, Disc 1\09 - No One To Run With.wav

Peak level 100.0 %
Track quality 100.0 %
Test CRC 4654D94E
Copy CRC 4654D94E
Track not present in AccurateRip database
Copy OK


None of the tracks are present in the AccurateRip database

No errors occurred

End of status report

Exact Audio Copy V0.99 prebeta 4 from 23. January 2008

EAC extraction logfile from 28. November 2009, 17:32

The Allman Brothers Band / Oakdale Theatre August 22 2004, Disc 2

Used drive : PIONEER DVD+-RW DR-K17Y Adapter: 0 ID: 0

Read mode : Secure
Utilize accurate stream : Yes
Defeat audio cache : Yes
Make use of C2 pointers : No

Read offset correction : 48
Overread into Lead-In and Lead-Out : No
Fill up missing offset samples with silence : Yes
Delete leading and trailing silent blocks : No
Null samples used in CRC calculations : Yes
Used interface : Native Win32 interface for Win NT & 2000
Gap handling : Appended to previous track

Used output format : User Defined Encoder
Selected bitrate : 768 kBit/s
Quality : High
Add ID3 tag : No
Command line compressor : C:\Program Files\Exact Audio Copy\FLAC\FLAC.EXE
Additional command line options : -8 -V -T "ARTIST=%a" -T "TITLE=%t" -T "ALBUM=%g" -T "DATE=%y" -T "TRACKNUMBER=%n" -T "GENRE=%m" -T "COMMENT=EAC FLAC -8" %s


TOC of the extracted CD

Track | Start | Length | Start sector | End sector
––––––––––––––––––––––––––––-
1 | 0:00.00 | 5:05.61 | 0 | 22935
2 | 5:05.61 | 6:53.49 | 22936 | 53959
3 | 11:59.35 | 12:34.37 | 53960 | 110546
4 | 24:33.72 | 11:01.21 | 110547 | 160142
5 | 35:35.18 | 7:53.38 | 160143 | 195655
6 | 43:28.56 | 11:20.08 | 195656 | 246663


Track 1

Filename C:\UPS\The Allman Brothers Band - Oakdale Theatre August 22 2004 (2004) [FLAC]\Oakdale Theatre August 22 2004, Disc 2\01 - Revival.wav

Pre-gap length 0:00:02.00

Peak level 100.0 %
Track quality 99.9 %
Test CRC A04E8F7C
Copy CRC A04E8F7C
Track not present in AccurateRip database
Copy OK

Track 2

Filename C:\UPS\The Allman Brothers Band - Oakdale Theatre August 22 2004 (2004) [FLAC]\Oakdale Theatre August 22 2004, Disc 2\02 - Come And Go Blues.wav

Peak level 100.0 %
Track quality 100.0 %
Test CRC 11A4750F
Copy CRC 11A4750F
Track not present in AccurateRip database
Copy OK

Track 3

Filename C:\UPS\The Allman Brothers Band - Oakdale Theatre August 22 2004 (2004) [FLAC]\Oakdale Theatre August 22 2004, Disc 2\03 - Desdemona.wav

Peak level 100.0 %
Track quality 100.0 %
Test CRC 89E02EAA
Copy CRC 89E02EAA
Track not present in AccurateRip database
Copy OK

Track 4

Filename C:\UPS\The Allman Brothers Band - Oakdale Theatre August 22 2004 (2004) [FLAC]\Oakdale Theatre August 22 2004, Disc 2\04 - Good Morning Little Schoolgirl.wav

Peak level 100.0 %
Track quality 100.0 %
Test CRC 2B2D9F39
Copy CRC 2B2D9F39
Track not present in AccurateRip database
Copy OK

Track 5

Filename C:\UPS\The Allman Brothers Band - Oakdale Theatre August 22 2004 (2004) [FLAC]\Oakdale Theatre August 22 2004, Disc 2\05 - High Cost Of Low Living.wav

Peak level 100.0 %
Track quality 99.9 %
Test CRC 8529B5FD
Copy CRC 8529B5FD
Track not present in AccurateRip database
Copy OK

Track 6

Filename C:\UPS\The Allman Brothers Band - Oakdale Theatre August 22 2004 (2004) [FLAC]\Oakdale Theatre August 22 2004, Disc 2\06 - Hoochie Coochie Man.wav

Peak level 100.0 %
Track quality 100.0 %
Test CRC 3E0448D3
Copy CRC 3E0448D3
Track not present in AccurateRip database
Copy OK


None of the tracks are present in the AccurateRip database

No errors occurred

End of status report

Exact Audio Copy V0.99 prebeta 4 from 23. January 2008

EAC extraction logfile from 28. November 2009, 20:41

The Allman Brothers Band / Oakdale Theatre August 22 2004, Disc 3

Used drive : PIONEER DVD+-RW DR-K17Y Adapter: 0 ID: 0

Read mode : Secure
Utilize accurate stream : Yes
Defeat audio cache : Yes
Make use of C2 pointers : No

Read offset correction : 48
Overread into Lead-In and Lead-Out : No
Fill up missing offset samples with silence : Yes
Delete leading and trailing silent blocks : No
Null samples used in CRC calculations : Yes
Used interface : Native Win32 interface for Win NT & 2000
Gap handling : Appended to previous track

Used output format : User Defined Encoder
Selected bitrate : 768 kBit/s
Quality : High
Add ID3 tag : No
Command line compressor : C:\Program Files\Exact Audio Copy\FLAC\FLAC.EXE
Additional command line options : -8 -V -T "ARTIST=%a" -T "TITLE=%t" -T "ALBUM=%g" -T "DATE=%y" -T "TRACKNUMBER=%n" -T "GENRE=%m" -T "COMMENT=EAC FLAC -8" %s


TOC of the extracted CD

Track | Start | Length | Start sector | End sector
––––––––––––––––––––––––––––-
1 | 0:00.00 | 11:18.73 | 0 | 50922
2 | 11:18.73 | 37:43.00 | 50923 | 220647
3 | 49:01.73 | 7:54.47 | 220648 | 256244


Track 1

Filename C:\UPS\The Allman Brothers Band - Oakdale Theatre August 22 2004 (2004) [FLAC]\Oakdale Theatre August 22 2004, Disc 3\01 - Dreams.wav

Pre-gap length 0:00:02.00

Peak level 100.0 %
Track quality 100.0 %
Test CRC 09F8BB9B
Copy CRC 09F8BB9B
Track not present in AccurateRip database
Copy OK

Track 2

Filename C:\UPS\The Allman Brothers Band - Oakdale Theatre August 22 2004 (2004) [FLAC]\Oakdale Theatre August 22 2004, Disc 3\02 - Instrumental Illness.wav

Peak level 100.0 %
Track quality 99.9 %
Test CRC BFE6788D
Copy CRC BFE6788D
Track not present in AccurateRip database
Copy OK

Track 3

Filename C:\UPS\The Allman Brothers Band - Oakdale Theatre August 22 2004 (2004) [FLAC]\Oakdale Theatre August 22 2004, Disc 3\03 - Southbound.wav

Peak level 100.0 %
Track quality 100.0 %
Test CRC 5B4027C7
Copy CRC 5B4027C7
Track not present in AccurateRip database
Copy OK


None of the tracks are present in the AccurateRip database

No errors occurred

End of status report


The Allman Brothers Band - Oakdale Theatre, Wallingford, CT - August 22, 2004 (2004) {3CD Set Peach Records}


All thanks goes to the original releaser!

===