Subcategories

Andres Segovia & his Contemporaries, Vol. 9 (2004)

Posted By: TimMa
Andres Segovia & his Contemporaries, Vol. 9 (2004)

Andres Segovia & his Contemporaries, Vol. 9 (2004)
Flac+cue+log | 1 CD | 237.21 Mb | Total Time: 63:32 min
Genre: Classical Guitar | Label: Doremi | Catalog#: 7804 | Released: Aug 3, 2004

Includes work(s) by Francisco Tarrega. Soloists: Andrés Segovia, Regino Sainz de la Maza.
Rodrigo wrote the Concierto de Aranjuez in 1939 in Paris to his compatriot guitarist Regino Sainz de la Maza. Premiere concert took place on 9 November 1940 in Barcelona César Mendoza Lasalle the conductor's podium. Presented in a hand writing (1948) - the only one known to me, made the guitarist for whom this concerto was written.
Andres Segovia & his Contemporaries, Vol. 9 (2004)

REGINO SAINZ de la MAZA
Joaquín Rodrigo - Concierto de Aranjuez
01. Allegro con spirito
02. Adagio
03. Allegro gentile
Orquesta Nacional de Espana
Ataulfo Argenta
04. Francisco Tárrega - Mazurka
05. Francisco Tárrega - Evocacion
06. Regino Sainz de la Maza - El Vito
07. Francisco Tárrega - Reverie
ANDRES SEGOVIA
08. Mario Castelnuovo-Tedesco - Tarantella
Mario Castelnuovo-Tedesco - Concerto No.1
09. Allegretto giusto
10. Andantino - alla Romanza
11. Ritmico e cavalleresco
The New London Orchestra
Alex Sherman
Manuel María Ponce - Sonatina Meridional
12. Campo
13. Copla
14. Fiesta

Exact Audio Copy V0.99 prebeta 4 from 23. January 2008
Отчёт EAC об извлечении, выполненном 26. апреля 2009, 22:01
Segovia & Sainz de la Maza / Andres Segovia and his Contemporaries vol.9
Дисковод: Optiarc DVD RW AD-7173A Adapter: 0 ID: 0
Режим чтения : Достоверность
Использование точного потока : Да
Отключение кэша аудио : Да
Использование указателей C2 : Нет
Коррекция смещения при чтении : 48
Способность читать области Lead-in и Lead-out : Нет
Заполнение пропущенных сэмплов тишиной : Да
Удаление блоков с тишиной в начале и конце : Нет
При вычислениях CRC использовались нулевые сэмплы : Да
Интерфейс : Установленный внешний ASPI-интерфейс
Выходной формат : Пользовательский кодировщик
Выбранный битрейт : 320 kBit/s
Качество : Высокий
Добавление ID3-тэга : Нет
Утилита сжатия : C:\Program Files\FLAC\flac.exe
Дополнительные параметры : -5 -V -T "ARTIST=%a" -T "TITLE=%t" -T "ALBUM=%g" -T "DATE=%y" -T "TRACKNUMBER=%n" -T "GENRE=%m" -T "COMMENT=EAC FLAC -5" %s
TOC извлечённого CD
Трек | Старт | Длительность | Начальный сектор | Конечный сектор
––––––––––––––––––––––––––––––––––-
1 | 0:00.00 | 6:08.19 | 0 | 27618
2 | 6:08.19 | 8:32.66 | 27619 | 66084
3 | 14:41.10 | 5:23.17 | 66085 | 90326
4 | 20:04.27 | 2:07.41 | 90327 | 99892
5 | 22:11.68 | 3:36.37 | 99893 | 116129
6 | 25:48.30 | 2:25.56 | 116130 | 127060
7 | 28:14.11 | 3:37.05 | 127061 | 143340
8 | 31:51.16 | 3:52.52 | 143341 | 160792
9 | 35:43.68 | 6:15.67 | 160793 | 188984
10 | 41:59.60 | 6:34.69 | 188985 | 218603
11 | 48:34.54 | 6:17.48 | 218604 | 246926
12 | 54:52.27 | 3:53.73 | 246927 | 264474
13 | 58:46.25 | 2:08.23 | 264475 | 274097
14 | 60:54.48 | 2:38.18 | 274098 | 285965
Характеристики диапазона извлечения и сообщения об ошибках
Выбранный диапазон
Имя файла D:\Segovia & Sainz de la Maza - Andres Segovia and his Contemporaries vol.9.wav
Пиковый уровень 100.0 %
Качество диапазона 100.0 %
CRC копии 2C4947AD
Копирование… OK
Ошибок не произошло
AccurateRip: сводка
Трек 1 нет в базе данных
Трек 2 нет в базе данных
Трек 3 нет в базе данных
Трек 4 нет в базе данных
Трек 5 нет в базе данных
Трек 6 нет в базе данных
Трек 7 нет в базе данных
Трек 8 нет в базе данных
Трек 9 нет в базе данных
Трек 10 нет в базе данных
Трек 11 нет в базе данных
Трек 12 нет в базе данных
Трек 13 нет в базе данных
Трек 14 нет в базе данных
Ни одного трека нет в базе AccurateRip
Конец отчёта