Tags
Language
Tags

Archie Shepp and Dollar Brand - Duet (1978) {Denon DC-8561 rel 1990}

Posted By:
Archie Shepp and Dollar Brand - Duet (1978) {Denon DC-8561 rel 1990}

Archie Shepp and Dollar Brand - Duet (1978) {Denon DC-8561 rel 1990}
EAC rip (secure mode) | FLAC (tracks)+CUE+LOG -> 221 Mb | MP3 @320 -> 107 Mb
Full Artwork @ 300 dpi (jpg) -> 21 Mb | 5% repair rar
© 1978, 1990 Denon / Nippon Columbia Japan | DC-8561
Jazz / Cool / Jazz Blues / Mainstream Jazz

A somewhat surprising pairing at the time, the former firebrand of the tenor sax and the wonderful South African pianist found a pleasant and relaxed meeting point. By 1978, Shepp had largely abandoned the ferocious attack that gained him renown in the '60s, settling on a rich, Ben Webster-ish tone and playing a repertoire consisting of modern standards and bluesy originals. Two such pieces, the lovely Dave Burrell/Marion Brown composition "Fortunato" and Mal Waldron's "Left Alone," are highlights of this session, Shepp's burnished tone as soft as an old shoe.

Ibrahim is a fairly deferential partner here, generally preferring to play the role of accompanist, although certainly one sprinkling his work with plenty of ideas for Shepp to work off. But the prevailing sense of relaxation begins to pall after a while and one wishes for a bit more of the old rough and tumble that these two were surely capable of. Still, for those who enjoyed Shepp's mid-'70s dates for Arista/Freedom and Ibrahim's more subdued group efforts of the late '70s and early '80s, there's much good listening here.

Personnel
Archie Shepp – tenor saxophone, alto saxophone, soprano saxophone
Dollar Brand – piano

Recorded at Nippon Columbia Ist Studio, Tokyo, June 5, 1978

Track Listing
01 - Fortunato
02 - Barefoot Boy From Queens Town - To Mongezi
03 - Left Alone
04 - Theme From 'Proof Of The Man'
05 - Ubu-Suku
06 - Moniebah

EAC extraction logfile from 20. December 2010, 22:58 for CD
Archie Shepp & Dollar Brand / Duet

Used drive : HP DVD Writer 1170d Adapter: 1 ID: 0
Read mode : Secure with NO C2, accurate stream, disable cache
Read offset correction : 6
Overread into Lead-In and Lead-Out : No

Used output format : C:\Program Files\FLAC\flac.exe (User Defined Encoder)
320 kBit/s
Additional command line options : -V -8 -T "artist=%a" -T "title=%t" -T "album=%g" -T "date=%y" -T "tracknumber=%n" -T "genre=%m" %s

Other options :
Fill up missing offset samples with silence : Yes
Delete leading and trailing silent blocks : No
Native Win32 interface for Win NT & 2000


Track 1
Filename C:\Documents and Settings\sheppbrand\01 - Fortunato.wav

Pre-gap length 0:00:02.00

Peak level 62.9 %
Track quality 100.0 %
Test CRC E9216A9F
Copy CRC E9216A9F
Copy OK

Track 2
Filename C:\Documents and Settings\sheppbrand\02 - Barefoot Boy From Queens Town - To Mongezi.wav

Pre-gap length 0:00:01.46

Peak level 80.1 %
Track quality 100.0 %
Test CRC 7C57B56A
Copy CRC 7C57B56A
Copy OK

Track 3
Filename C:\Documents and Settings\sheppbrand\03 - Left Alone.wav

Pre-gap length 0:00:02.17

Peak level 75.1 %
Track quality 100.0 %
Test CRC 9A5CAED1
Copy CRC 9A5CAED1
Copy OK

Track 4
Filename C:\Documents and Settings\sheppbrand\04 - Theme From 'Proof Of The Man'.wav

Pre-gap length 0:00:01.70

Peak level 73.8 %
Track quality 100.0 %
Test CRC 0D963D72
Copy CRC 0D963D72
Copy OK

Track 5
Filename C:\Documents and Settings\sheppbrand\05 - Ubu-Suku.wav

Pre-gap length 0:00:02.77

Peak level 78.2 %
Track quality 100.0 %
Test CRC AAAA6A85
Copy CRC AAAA6A85
Copy OK

Track 6
Filename C:\Documents and Settings\sheppbrand\06 - Moniebah.wav

Pre-gap length 0:00:03.33

Peak level 74.3 %
Track quality 100.0 %
Test CRC 2F2AE7F9
Copy CRC 2F2AE7F9
Copy OK

No errors occured


End of status report


Archie Shepp and Dollar Brand - Duet (1978) {Denon DC-8561 rel 1990}

Archie Shepp and Dollar Brand - Duet (1978) {Denon DC-8561 rel 1990}



===