Subcategories

Archie Shepp Quartet - I Didn't Know About You (1991)

Posted By: intothe
Archie Shepp Quartet - I Didn't Know About You (1991)

Archie Shepp Quartet - I Didn't Know About You (1991)
Jazz | EAC rip (FLAC+CUE+LOG) | 365 MB | full scans
Timeless | 64:31 | RAR with 5% recovery


EAC extraction logfile from 8. June 2009, 20:46

Archie Shepp Quartet / I Didn't Know About You

Used drive : _NEC DVD_RW ND-3500AG Adapter: 0 ID: 0

Read mode : Secure
Utilize accurate stream : Yes
Defeat audio cache : Yes
Make use of C2 pointers : No

Read offset correction : 48
Overread into Lead-In and Lead-Out : No
Fill up missing offset samples with silence : Yes
Delete leading and trailing silent blocks : No
Null samples used in CRC calculations : Yes
Used interface : Native Win32 interface for Win NT & 2000

Used output format : User Defined Encoder
Selected bitrate : 768 kBit/s
Quality : High
Add ID3 tag : No
Command line compressor : C:\Program Files\Exact Audio Copy\FLAC\FLAC.EXE
Additional command line options : -6 -V -T "ARTIST=%a" -T "TITLE=%t" -T "ALBUM=%g" -T "DATE=%y" -T "TRACKNUMBER=%n" -T "GENRE=%m" -T "COMMENT=%e" %s -o %d


TOC of the extracted CD

Track | Start | Length | Start sector | End sector
––––––––––––––––––––––––––––-
1 | 0:00.00 | 11:04.55 | 0 | 49854
2 | 11:04.55 | 10:15.02 | 49855 | 95981
3 | 21:19.57 | 5:53.03 | 95982 | 122459
4 | 27:12.60 | 7:36.30 | 122460 | 156689
5 | 34:49.15 | 9:49.47 | 156690 | 200911
6 | 44:38.62 | 5:34.45 | 200912 | 226006
7 | 50:13.32 | 4:50.00 | 226007 | 247756
8 | 55:03.32 | 9:27.50 | 247757 | 290331


Range status and errors

Selected range

Filename J:\eMusic\Rip\Archie Shepp Quartet - I Didn't Know About You.wav

Peak level 100.0 %
Range quality 100.0 %
Copy CRC 44AC2AC1
Copy OK

No errors occurred


AccurateRip summary

Track 1 not present in database
Track 2 not present in database
Track 3 not present in database
Track 4 not present in database
Track 5 not present in database
Track 6 not present in database
Track 7 not present in database
Track 8 not present in database

None of the tracks are present in the AccurateRip database

End of status report


A strong effort by Shepp, who is reunited with pianist Horace Parlan and joined by bassist Wayne Dockery and drummer George Brown for a an eight-track set recorded in Germany. The highlight is clearly the sole track with Parlan in which they perform Monk's "Ask Me Now" both effectively and emotionally. The version of "Go Down Moses (Let My People Go)" is a winner for Shepp's glorious baritone vocals and his saxophone solo. The excellent choice of tunes (including Duke Ellington's "I Didn't Know About You," Todd Dameron's "Hot House," and Bird's "Now the Time") presents Shepp in a fine light, where he blows both tenor and alto saxophones. Some of the pieces, such as Shepp's "Party Time," are less than perfect and the saxophonist's vocals on "The Good Life" are only average, but overall, Shepp and the quartet are a pleasure to hear. - by Steven Loewy, AMG

Tracks:
1. Go Down Moses (Let My People Go) (Traditional) 11:04
2. I Didn't Know About You (Duke Ellington/Bob Russell) 10:15
3. Billie's Bossa (Horace Parlan) 5:53
4. Hot House (Tadd Dameron) 7:36
5. The Good Life (Sacha Distel/Jean Broussolle) 9:49
6. Now's the Time (Charlie Parker) 5:34
7. Ask Me Now (Thelonious Monk) 4:50
8. Party-Time (Archie Shepp) 9:27

Personnel:
Archie Shepp (Tenor and Alto Saxophone)
Horace Parlan (Piano)
Wayne Dockery (Double Bass)
George Brown (Drums)

Rapidshare
Hotfile