Subcategories

Arditti String Quartet - Arditi Quartet Edition, Volume 2: Arnold Schoenberg - Weihnachtsmusik & Transcriptions

Posted By: wursthans
Arditti String Quartet - Arditi Quartet Edition, Volume 2: Arnold Schoenberg - Weihnachtsmusik & Transcriptions

Arditti String Quartet - Arditi Quartet Edition, Volume 2: Arnold Schoenberg - Weihnachtsmusik & Transcriptions
Genre: Classical | 1 CD | EAC & FLAC (CUE+LOG) | Complete Covers & PDF | 253 MB
1989 recording, 2002 release | Publisher: Naïve Montaigne 782160
RapidShare


Works/Tracks:

1. Weihnachtsmusik

Lieder eines fahrenden Gesellen (arr. after Mahler)
2. I. Wenn mein Schatz Hochzeit macht
3. II. Ging heut' Morgen übers Feld
4. III. Ich hab' ein glühend Messer
5. IV. Die zwei blauen Augen

6. Berceuse elegiaque, op. 42 (arr. after Busoni)
7. Kaiserwalzer (arr. after Johann Strauß)
8. Rosen aus dem Süden (arr. after Johann Strauß)

Performers:

Irvine Arditti & David Alberman (violins), Rohan de Saran (cello), Hakan Austbö (harmonium), Louise Bessette (piano), Jean-Luc Chaignaud (baritone), Michel Moraguès (flute), Paul Meyer (clarinette), Isabelle Berteletti (percussions), Marc Marder (double bass), Michel Béroff (direction)

Exact Audio Copy V0.99 prebeta 5 from 4. May 2009

EAC extraction logfile from 27. December 2009, 17:46

arditti quartet edition 2 / arnold schoenberg - weihnachtsmusik & transcriptions

Used drive : HL-DT-STDVD-RAM GH22LS30 Adapter: 1 ID: 0

Read mode : Secure
Utilize accurate stream : Yes
Defeat audio cache : Yes
Make use of C2 pointers : No

Read offset correction : 102
Overread into Lead-In and Lead-Out : Yes
Fill up missing offset samples with silence : Yes
Delete leading and trailing silent blocks : No
Null samples used in CRC calculations : Yes
Used interface : Native Win32 interface for Win NT & 2000
Gap handling : Appended to previous track

Used output format : User Defined Encoder
Selected bitrate : 128 kBit/s
Quality : High
Add ID3 tag : No
Command line compressor : D:\Programme\EAC099\Flac\flac.exe
Additional command line options : -5 -V -T "ARTIST=%a" -T "TITLE=%t" -T "ALBUM=%g" -T "DATE=%y" -T "TRACKNUMBER=%n" -T "TOTALTRACKS=%x" -T "GENRE=%m" -T "ALBUM ARTIST=%v" -T "ALBUMARTIST=%v" -T "COMMENT=EAC V0.99 prebeta 5, Secure Mode, Test & Copy, Accurat


TOC of the extracted CD

Track | Start | Length | Start sector | End sector
––––––––––––––––––––––––––––-
1 | 0:00.33 | 6:10.30 | 33 | 27812
2 | 6:10.63 | 3:58.32 | 27813 | 45694
3 | 10:09.20 | 4:14.65 | 45695 | 64809
4 | 14:24.10 | 3:10.40 | 64810 | 79099
5 | 17:34.50 | 5:26.58 | 79100 | 103607
6 | 23:01.33 | 9:51.00 | 103608 | 147932
7 | 32:52.33 | 11:31.00 | 147933 | 199757
8 | 44:23.33 | 10:11.00 | 199758 | 245582


Track 1

Filename E:\Share\Classical\Collections\arditti quartet edition 2 - arnold schoenberg (2002) [FLAC] {Montaigne MO 782160}\01 - Weihnachtsmusik.wav

Pre-gap length 0:00:02.44

Peak level 71.8 %
Track quality 100.0 %
Test CRC 4324747D
Copy CRC 4324747D
Accurately ripped (confidence 3) [1EEFF80D]
Copy OK

Track 2

Filename E:\Share\Classical\Collections\arditti quartet edition 2 - arnold schoenberg (2002) [FLAC] {Montaigne MO 782160}\02 - I. Wenn mein Schatz Hochzeit macht.wav

Pre-gap length 0:00:09.40

Peak level 61.4 %
Track quality 99.9 %
Test CRC 1E6B473A
Copy CRC 1E6B473A
Accurately ripped (confidence 3) [166EA442]
Copy OK

Track 3

Filename E:\Share\Classical\Collections\arditti quartet edition 2 - arnold schoenberg (2002) [FLAC] {Montaigne MO 782160}\03 - II. Ging heut' Morgen uebers Feld.wav

Pre-gap length 0:00:04.82

Peak level 69.8 %
Track quality 100.0 %
Test CRC E8ABA5E4
Copy CRC E8ABA5E4
Accurately ripped (confidence 3) [05368814]
Copy OK

Track 4

Filename E:\Share\Classical\Collections\arditti quartet edition 2 - arnold schoenberg (2002) [FLAC] {Montaigne MO 782160}\04 - III. Ich hab' ein gluehend Messer.wav

Pre-gap length 0:00:04.69

Peak level 97.3 %
Track quality 100.0 %
Test CRC 8B8C575A
Copy CRC 8B8C575A
Accurately ripped (confidence 3) [83486F2C]
Copy OK

Track 5

Filename E:\Share\Classical\Collections\arditti quartet edition 2 - arnold schoenberg (2002) [FLAC] {Montaigne MO 782160}\05 - IV. Die zwei blauen Augen.wav

Pre-gap length 0:00:05.22

Peak level 36.3 %
Track quality 99.9 %
Test CRC 0DC44570
Copy CRC 0DC44570
Accurately ripped (confidence 3) [5579265D]
Copy OK

Track 6

Filename E:\Share\Classical\Collections\arditti quartet edition 2 - arnold schoenberg (2002) [FLAC] {Montaigne MO 782160}\06 - Berceuse elegiaque.wav

Pre-gap length 0:00:08.00

Peak level 43.3 %
Track quality 100.0 %
Test CRC 7995B67F
Copy CRC 7995B67F
Accurately ripped (confidence 3) [E36E3DF2]
Copy OK

Track 7

Filename E:\Share\Classical\Collections\arditti quartet edition 2 - arnold schoenberg (2002) [FLAC] {Montaigne MO 782160}\07 - Kaiserwalzer.wav

Pre-gap length 0:00:08.00

Peak level 98.0 %
Track quality 99.9 %
Test CRC 684A5374
Copy CRC 684A5374
Accurately ripped (confidence 3) [AD8232AB]
Copy OK

Track 8

Filename E:\Share\Classical\Collections\arditti quartet edition 2 - arnold schoenberg (2002) [FLAC] {Montaigne MO 782160}\08 - Rosen aus dem Sueden.wav

Pre-gap length 0:00:08.00

Peak level 87.4 %
Track quality 99.9 %
Test CRC 0333387E
Copy CRC 0333387E
Accurately ripped (confidence 3) [84FF673A]
Copy OK


All tracks accurately ripped

No errors occurred

End of status report



Recording Information:

arditti quartet edition 2:
arnold schoenberg - weihnachtsmusik & transcriptions

recorded November 13-22, 1989
Paris/France
released 2002

Naïve Montaigne
782160




PW: aqe2as

Download:

Rapidshare